  0
SECTION
  2
HEADER
  9
$ACADVER
  1
AC1009
  9
$INSBASE
 10
0.0
 20
0.0
 30
0.0
  9
$EXTMIN
 10
1.000000E+20
 20
1.000000E+20
 30
1.000000E+20
  9
$EXTMAX
 10
-1.000000E+20
 20
-1.000000E+20
 30
-1.000000E+20
  9
$LIMMIN
 10
0.0
 20
0.0
  9
$LIMMAX
 10
0.0
 20
0.0
  9
$ORTHOMODE
 70
     0
  9
$REGENMODE
 70
     1
  9
$FILLMODE
 70
     1
  9
$QTEXTMODE
 70
     0
  9
$MIRRTEXT
 70
     1
  9
$DRAGMODE
 70
     2
  9
$LTSCALE
 40
1.0
  9
$OSMODE
 70
     0
  9
$ATTMODE
 70
     1
  9
$TEXTSIZE
 40
0.2
  9
$TRACEWID
 40
0.05
  9
$TEXTSTYLE
  7
STANDARD
  9
$CLAYER
  8
DIMS
  9
$CELTYPE
  6
BYLAYER
  9
$CECOLOR
 62
   256
  9
$DIMSCALE
 40
1.0
  9
$DIMASZ
 40
0.1875
  9
$DIMEXO
 40
0.125
  9
$DIMDLI
 40
0.38
  9
$DIMRND
 40
0.0
  9
$DIMDLE
 40
0.0
  9
$DIMEXE
 40
0.03
  9
$DIMTP
 40
0.0
  9
$DIMTM
 40
0.0
  9
$DIMTXT
 40
0.1875
  9
$DIMCEN
 40
0.09
  9
$DIMTSZ
 40
0.0
  9
$DIMTOL
 70
     0
  9
$DIMLIM
 70
     0
  9
$DIMTIH
 70
     0
  9
$DIMTOH
 70
     0
  9
$DIMSE1
 70
     0
  9
$DIMSE2
 70
     0
  9
$DIMTAD
 70
     1
  9
$DIMZIN
 70
     0
  9
$DIMBLK
  1

  9
$DIMASO
 70
     1
  9
$DIMSHO
 70
     1
  9
$DIMPOST
  1

  9
$DIMAPOST
  1

  9
$DIMALT
 70
     0
  9
$DIMALTD
 70
     2
  9
$DIMALTF
 40
25.4
  9
$DIMLFAC
 40
1.0
  9
$DIMTOFL
 70
     0
  9
$DIMTVP
 40
0.0
  9
$DIMTIX
 70
     0
  9
$DIMSOXD
 70
     0
  9
$DIMSAH
 70
     0
  9
$DIMBLK1
  1

  9
$DIMBLK2
  1

  9
$DIMSTYLE
  2
STANDARD
  9
$DIMCLRD
 70
     0
  9
$DIMCLRE
 70
     0
  9
$DIMCLRT
 70
     0
  9
$DIMTFAC
 40
1.0
  9
$DIMGAP
 40
0.0625
  9
$LUNITS
 70
     2
  9
$LUPREC
 70
     4
  9
$AXISMODE
 70
     0
  9
$AXISUNIT
 10
0.0
 20
0.0
  9
$SKETCHINC
 40
0.1
  9
$FILLETRAD
 40
0.0
  9
$AUNITS
 70
     0
  9
$AUPREC
 70
     0
  9
$MENU
  1
acad
  9
$ELEVATION
 40
0.0
  9
$PELEVATION
 40
0.0
  9
$THICKNESS
 40
0.0
  9
$LIMCHECK
 70
     0
  9
$BLIPMODE
 70
     1
  9
$CHAMFERA
 40
0.0
  9
$CHAMFERB
 40
0.0
  9
$SKPOLY
 70
     0
  9
$TDCREATE
 40
0.000000000
  9
$TDUPDATE
 40
0.000000000
  9
$TDINDWG
 40
0.0000000000
  9
$TDUSRTIMER
 40
0.0000000000
  9
$USRTIMER
 70
     1
  9
$ANGBASE
 50
0.0
  9
$ANGDIR
 70
     0
  9
$PDMODE
 70
     0
  9
$PDSIZE
 40
0.0
  9
$PLINEWID
 40
0.0
  9
$COORDS
 70
     0
  9
$SPLFRAME
 70
     0
  9
$SPLINETYPE
 70
     6
  9
$SPLINESEGS
 70
     8
  9
$ATTDIA
 70
     0
  9
$ATTREQ
 70
     1
  9
$HANDLING
 70
     1
  9
$HANDSEED
  5
56A
  9
$SURFTAB1
 70
     6
  9
$SURFTAB2
 70
     6
  9
$SURFTYPE
 70
     6
  9
$SURFU
 70
     6
  9
$SURFV
 70
     6
  9
$UCSNAME
  2

  9
$UCSORG
 10
0.0
 20
0.0
 30
0.0
  9
$UCSXDIR
 10
1.0
 20
0.0
 30
0.0
  9
$UCSYDIR
 10
0.0
 20
1.0
 30
0.0
  9
$PUCSNAME
  2

  9
$PUCSORG
 10
0.0
 20
0.0
 30
0.0
  9
$PUCSXDIR
 10
1.0
 20
0.0
 30
0.0
  9
$PUCSYDIR
 10
0.0
 20
1.0
 30
0.0
  9
$USERI1
 70
     0
  9
$USERI2
 70
     0
  9
$USERI3
 70
     0
  9
$USERI4
 70
     0
  9
$USERI5
 70
     0
  9
$USERR1
 40
0.0
  9
$USERR2
 40
0.0
  9
$USERR3
 40
0.0
  9
$USERR4
 40
0.0
  9
$USERR5
 40
0.0
  9
$WORLDVIEW
 70
     1
  9
$SHADEDGE
 70
     3
  9
$SHADEDIF
 70
    70
  9
$TILEMODE
 70
     1
  9
$MAXACTVP
 70
    16
  9
$PINSBASE
 10
0.0
 20
0.0
 30
0.0
  9
$PLIMCHECK
 70
     0
  9
$PEXTMIN
 10
1.000000E+20
 20
1.000000E+20
 30
1.000000E+20
  9
$PEXTMAX
 10
-1.000000E+20
 20
-1.000000E+20
 30
-1.000000E+20
  9
$PLIMMIN
 10
0.0
 20
0.0
  9
$PLIMMAX
 10
12.0
 20
9.0
  9
$UNITMODE
 70
     0
  9
$VISRETAIN
 70
     0
  9
$PLINEGEN
 70
     1
  9
$PSLTSCALE
 70
     0
  9
$TREEDEPTH
 70
  3020
  9
$DWGCODEPAGE
  3
dos850
  0
ENDSEC
  0
SECTION
  2
TABLES
  0
TABLE
  2
VPORT
 70
     1
  0
VPORT
  2
*ACTIVE
 70
     0
 10
0.0
 20
0.0
 11
1.0
 21
1.0
 12
6.591288
 22
4.579184
 13
0.0
 23
0.0
 14
1.0
 24
1.0
 15
0.0
 25
0.0
 16
0.0
 26
0.0
 36
1.0
 17
0.0
 27
0.0
 37
0.0
 40
9.158369
 41
0.688564
 42
50.0
 43
0.0
 44
0.0
 50
0.0
 51
0.0
 71
     0
 72
   100
 73
     1
 74
     1
 75
     0
 76
     0
 77
     0
 78
     0
  0
ENDTAB
  0
TABLE
  2
LTYPE
 70
     1
  0
LTYPE
  2
CONTINUOUS
 70
    64
  3
Solid line
 72
    65
 73
     0
 40
0.0
  0
ENDTAB
  0
TABLE
  2
LAYER
 70
     6
  0
LAYER
  2
0
 70
     0
 62
     7
  6
CONTINUOUS
  0
LAYER
  2
DIMS
 70
     0
 62
     7
  6
CONTINUOUS
  0
LAYER
  2
PLINTH
 70
     0
 62
    99
  6
CONTINUOUS
  0
LAYER
  2
CUTLINE
 70
     0
 62
     7
  6
CONTINUOUS
  0
LAYER
  2
HOLE
 70
     0
 62
     7
  6
CONTINUOUS
  0
LAYER
  2
HIDE
 70
     0
 62
     7
  6
CONTINUOUS
  0
ENDTAB
  0
TABLE
  2
STYLE
 70
     1
  0
STYLE
  2
STANDARD
 70
     0
 40
0.0
 41
1.0
 50
0.0
 71
     0
 42
0.0
  3
txt
  4

  0
ENDTAB
  0
TABLE
  2
VIEW
 70
     0
  0
ENDTAB
  0
TABLE
  2
UCS
 70
     0
  0
ENDTAB
  0
TABLE
  2
APPID
 70
     1
  0
APPID
  2
ACAD
 70
     0
  0
ENDTAB
  0
TABLE
  2
DIMSTYLE
 70
     1
  0
DIMSTYLE
  2
STANDARD
 70
     0
  3

  4

  5

  6

  7

 40
1.0
 41
0.18
 42
0.0625
 43
0.38
 44
0.18
 45
0.0
 46
0.0
 47
0.0
 48
0.0
 71
     0
 72
     0
 73
     1
 74
     1
 75
     0
 76
     0
 77
     0
 78
     0
140
0.18
141
0.09
142
0.0
143
25.4
144
1.0
145
0.0
146
1.0
147
0.09
170
     0
171
     2
172
     0
173
     0
174
     0
175
     0
176
     0
177
     0
178
     0
  0
ENDTAB
  0
ENDSEC
  0
SECTION
  2
BLOCKS
  0
BLOCK
  8
DIMS
  5
1F
  2
*D0
 70
     1
 10
0.0
 20
0.0
 30
0.0
  3
*D0
  0
LINE
  8
DIMS
  5
20
 10
6.331972
 20
15.508766
 30
0.0
 11
6.144472
 21
15.508766
 31
0.0
  0
LINE
  8
DIMS
  5
21
 10
6.238222
 20
15.602516
 30
0.0
 11
6.238222
 21
15.415016
 31
0.0
  0
LINE
  8
DIMS
  5
22
 10
6.180254
 20
15.655189
 30
0.0
 11
6.042219
 21
16.00386
 31
0.0
  0
LINE
  8
DIMS
  5
23
 10
5.854719
 20
16.00386
 30
0.0
 11
6.042219
 21
16.00386
 31
0.0
  0
TEXT
  8
DIMS
  5
25
 10
3.364633
 20
15.888137
 30
0.0
 40
0.1875
  1
 dia. 4 places 0-1/4
  0
SOLID
  8
DIMS
  5
27
 10
6.067653
 20
15.81227
 30
0.0
 11
6.15482
 21
15.846779
 31
0.0
 12
6.180254
 22
15.655189
 32
0.0
 13
6.180254
 23
15.655189
 33
0.0
  0
ENDBLK
  8
DIMS
  5
28
  0
BLOCK
  8
DIMS
  5
2AD
  2
*D1
 70
     1
 10
0.0
 20
0.0
 30
0.0
  3
*D1
  0
LINE
  8
DIMS
  5
2AE
 10
12.363222
 20
13.008766
 30
0.0
 11
4.821037
 21
13.008766
 31
0.0
  0
LINE
  8
DIMS
  5
2AF
 10
9.363222
 20
5.321758
 30
0.0
 11
4.821037
 21
5.321758
 31
0.0
  0
LINE
  8
DIMS
  5
2B0
 10
4.851037
 20
13.008766
 30
0.0
 11
4.851037
 21
5.321758
 31
0.0
  0
TEXT
  8
DIMS
  5
2B2
 10
4.803884
 20
8.669866
 30
0.0
 40
0.1875
  1
7-3/4typ
 50
90.0
  0
SOLID
  8
DIMS
  5
2B4
 10
4.897912
 20
12.821266
 30
0.0
 11
4.804162
 21
12.821266
 31
0.0
 12
4.851037
 22
13.008766
 32
0.0
 13
4.851037
 23
13.008766
 33
0.0
  0
SOLID
  8
DIMS
  5
2B6
 10
4.804162
 20
5.509258
 30
0.0
 11
4.897912
 21
5.509258
 31
0.0
 12
4.851037
 22
5.321758
 32
0.0
 13
4.851037
 23
5.321758
 33
0.0
  0
ENDBLK
  8
DIMS
  5
2B7
  0
BLOCK
  8
DIMS
  5
2BB
  2
*D2
 70
     1
 10
0.0
 20
0.0
 30
0.0
  3
*D2
  0
LINE
  8
DIMS
  5
2BC
 10
12.363222
 20
13.008766
 30
0.0
 11
4.821037
 21
13.008766
 31
0.0
  0
LINE
  8
DIMS
  5
2BD
 10
6.113222
 20
15.508766
 30
0.0
 11
4.821037
 21
15.508766
 31
0.0
  0
LINE
  8
DIMS
  5
2BE
 10
4.851037
 20
13.008766
 30
0.0
 11
4.851037
 21
15.508766
 31
0.0
  0
TEXT
  8
DIMS
  5
2C0
 10
4.803884
 20
13.76337
 30
0.0
 40
0.1875
  1
2-1/2typ
 50
90.0
  0
SOLID
  8
DIMS
  5
2C2
 10
4.804162
 20
13.196266
 30
0.0
 11
4.897912
 21
13.196266
 31
0.0
 12
4.851037
 22
13.008766
 32
0.0
 13
4.851037
 23
13.008766
 33
0.0
  0
SOLID
  8
DIMS
  5
2C4
 10
4.897912
 20
15.321266
 30
0.0
 11
4.804162
 21
15.321266
 31
0.0
 12
4.851037
 22
15.508766
 32
0.0
 13
4.851037
 23
15.508766
 33
0.0
  0
ENDBLK
  8
DIMS
  5
2C5
  0
BLOCK
  8
DIMS
  5
2CF
  2
*D3
 70
     1
 10
0.0
 20
0.0
 30
0.0
  3
*D3
  0
LINE
  8
DIMS
  5
2D0
 10
12.613222
 20
13.008766
 30
0.0
 11
14.30966
 21
13.008766
 31
0.0
  0
LINE
  8
DIMS
  5
2D1
 10
17.673318
 20
14.214393
 30
0.0
 11
14.24966
 21
14.214393
 31
0.0
  0
LINE
  8
DIMS
  5
2D2
 10
14.27966
 20
13.008766
 30
0.0
 11
14.27966
 21
14.214393
 31
0.0
  0
TEXT
  8
DIMS
  5
2D4
 10
14.232508
 20
13.116183
 30
0.0
 40
0.1875
  1
1-1/4typ
 50
90.0
  0
SOLID
  8
DIMS
  5
2D6
 10
14.232785
 20
13.196266
 30
0.0
 11
14.326535
 21
13.196266
 31
0.0
 12
14.27966
 22
13.008766
 32
0.0
 13
14.27966
 23
13.008766
 33
0.0
  0
SOLID
  8
DIMS
  5
2D8
 10
14.326535
 20
14.026893
 30
0.0
 11
14.232785
 21
14.026893
 31
0.0
 12
14.27966
 22
14.214393
 32
0.0
 13
14.27966
 23
14.214393
 33
0.0
  0
ENDBLK
  8
DIMS
  5
2D9
  0
BLOCK
  8
DIMS
  5
2DD
  2
*D4
 70
     1
 10
0.0
 20
0.0
 30
0.0
  3
*D4
  0
LINE
  8
DIMS
  5
2DE
 10
12.613222
 20
13.008766
 30
0.0
 11
16.415386
 21
13.008766
 31
0.0
  0
LINE
  8
DIMS
  5
2DF
 10
16.792356
 20
6.620971
 30
0.0
 11
16.355386
 21
6.620971
 31
0.0
  0
LINE
  8
DIMS
  5
2E0
 10
16.385386
 20
13.008766
 30
0.0
 11
16.385386
 21
6.620971
 31
0.0
  0
TEXT
  8
DIMS
  5
2E2
 10
16.338234
 20
9.284909
 30
0.0
 40
0.1875
  1
6-1/2 typ
 50
90.0
  0
SOLID
  8
DIMS
  5
2E4
 10
16.432261
 20
12.821266
 30
0.0
 11
16.338511
 21
12.821266
 31
0.0
 12
16.385386
 22
13.008766
 32
0.0
 13
16.385386
 23
13.008766
 33
0.0
  0
SOLID
  8
DIMS
  5
2E6
 10
16.338511
 20
6.808471
 30
0.0
 11
16.432261
 21
6.808471
 31
0.0
 12
16.385386
 22
6.620971
 32
0.0
 13
16.385386
 23
6.620971
 33
0.0
  0
ENDBLK
  8
DIMS
  5
2E7
  0
BLOCK
  8
DIMS
  5
2EB
  2
*D5
 70
     1
 10
0.0
 20
0.0
 30
0.0
  3
*D5
  0
LINE
  8
DIMS
  5
2EC
 10
12.488222
 20
12.883766
 30
0.0
 11
12.488222
 21
9.404578
 31
0.0
  0
LINE
  8
DIMS
  5
2ED
 10
10.716568
 20
6.35227
 30
0.0
 11
10.716568
 21
9.464578
 31
0.0
  0
LINE
  8
DIMS
  5
2EE
 10
12.488222
 20
9.434578
 30
0.0
 11
10.716568
 21
9.434578
 31
0.0
  0
TEXT
  8
DIMS
  5
2F0
 10
11.072436
 20
9.481731
 30
0.0
 40
0.1875
  1
1-3/4 typ
  0
SOLID
  8
DIMS
  5
2F2
 10
12.300722
 20
9.387703
 30
0.0
 11
12.300722
 21
9.481453
 31
0.0
 12
12.488222
 22
9.434578
 32
0.0
 13
12.488222
 23
9.434578
 33
0.0
  0
SOLID
  8
DIMS
  5
2F4
 10
10.904068
 20
9.481453
 30
0.0
 11
10.904068
 21
9.387703
 31
0.0
 12
10.716568
 22
9.434578
 32
0.0
 13
10.716568
 23
9.434578
 33
0.0
  0
ENDBLK
  8
DIMS
  5
2F5
  0
BLOCK
  8
DIMS
  5
2F9
  2
*D6
 70
     1
 10
0.0
 20
0.0
 30
0.0
  3
*D6
  0
LINE
  8
DIMS
  5
2FA
 10
12.488222
 20
12.883766
 30
0.0
 11
12.488222
 21
10.567442
 31
0.0
  0
LINE
  8
DIMS
  5
2FB
 10
8.059088
 20
6.745971
 30
0.0
 11
8.059088
 21
10.627442
 31
0.0
  0
LINE
  8
DIMS
  5
2FC
 10
12.488222
 20
10.597442
 30
0.0
 11
8.059088
 21
10.597442
 31
0.0
  0
TEXT
  8
DIMS
  5
2FE
 10
9.743696
 20
10.644594
 30
0.0
 40
0.1875
  1
4-1/2 typ
  0
SOLID
  8
DIMS
  5
300
 10
12.300722
 20
10.550567
 30
0.0
 11
12.300722
 21
10.644317
 31
0.0
 12
12.488222
 22
10.597442
 32
0.0
 13
12.488222
 23
10.597442
 33
0.0
  0
SOLID
  8
DIMS
  5
302
 10
8.246588
 20
10.644317
 30
0.0
 11
8.246588
 21
10.550567
 31
0.0
 12
8.059088
 22
10.597442
 32
0.0
 13
8.059088
 23
10.597442
 33
0.0
  0
ENDBLK
  8
DIMS
  5
303
  0
BLOCK
  8
DIMS
  5
307
  2
*D7
 70
     1
 10
0.0
 20
0.0
 30
0.0
  3
*D7
  0
LINE
  8
DIMS
  5
308
 10
12.488222
 20
12.883766
 30
0.0
 11
12.488222
 21
3.024543
 31
0.0
  0
LINE
  8
DIMS
  5
309
 10
9.488222
 20
5.196758
 30
0.0
 11
9.488222
 21
3.024543
 31
0.0
  0
LINE
  8
DIMS
  5
30A
 10
12.488222
 20
3.054543
 30
0.0
 11
9.488222
 21
3.054543
 31
0.0
  0
TEXT
  8
DIMS
  5
30C
 10
10.700201
 20
3.101695
 30
0.0
 40
0.1875
  1
3 typ
  0
SOLID
  8
DIMS
  5
30E
 10
12.300722
 20
3.007668
 30
0.0
 11
12.300722
 21
3.101418
 31
0.0
 12
12.488222
 22
3.054543
 32
0.0
 13
12.488222
 23
3.054543
 33
0.0
  0
SOLID
  8
DIMS
  5
310
 10
9.675722
 20
3.101418
 30
0.0
 11
9.675722
 21
3.007668
 31
0.0
 12
9.488222
 22
3.054543
 32
0.0
 13
9.488222
 23
3.054543
 33
0.0
  0
ENDBLK
  8
DIMS
  5
311
  0
BLOCK
  8
DIMS
  5
315
  2
*D8
 70
     1
 10
0.0
 20
0.0
 30
0.0
  3
*D8
  0
LINE
  8
DIMS
  5
316
 10
12.488222
 20
12.883766
 30
0.0
 11
12.488222
 21
12.296023
 31
0.0
  0
LINE
  8
DIMS
  5
317
 10
7.178126
 20
14.089393
 30
0.0
 11
7.178126
 21
12.296023
 31
0.0
  0
LINE
  8
DIMS
  5
318
 10
12.488222
 20
12.326023
 30
0.0
 11
7.178126
 21
12.326023
 31
0.0
  0
TEXT
  8
DIMS
  5
31A
 10
9.303215
 20
12.373176
 30
0.0
 40
0.1875
  1
5-1/4 typ
  0
SOLID
  8
DIMS
  5
31C
 10
12.300722
 20
12.279148
 30
0.0
 11
12.300722
 21
12.372898
 31
0.0
 12
12.488222
 22
12.326023
 32
0.0
 13
12.488222
 23
12.326023
 33
0.0
  0
SOLID
  8
DIMS
  5
31E
 10
7.365626
 20
12.372898
 30
0.0
 11
7.365626
 21
12.279148
 31
0.0
 12
7.178126
 22
12.326023
 32
0.0
 13
7.178126
 23
12.326023
 33
0.0
  0
ENDBLK
  8
DIMS
  5
31F
  0
BLOCK
  8
DIMS
  5
323
  2
*D9
 70
     1
 10
0.0
 20
0.0
 30
0.0
  3
*D9
  0
LINE
  8
DIMS
  5
324
 10
12.488222
 20
13.133766
 30
0.0
 11
12.488222
 21
20.024637
 31
0.0
  0
LINE
  8
DIMS
  5
325
 10
6.238222
 20
15.633766
 30
0.0
 11
6.238222
 21
20.024637
 31
0.0
  0
LINE
  8
DIMS
  5
326
 10
12.488222
 20
19.994637
 30
0.0
 11
6.238222
 21
19.994637
 31
0.0
  0
TEXT
  8
DIMS
  5
328
 10
8.833263
 20
20.04179
 30
0.0
 40
0.1875
  1
6-1/4 typ
  0
SOLID
  8
DIMS
  5
32A
 10
12.300722
 20
19.947762
 30
0.0
 11
12.300722
 21
20.041512
 31
0.0
 12
12.488222
 22
19.994637
 32
0.0
 13
12.488222
 23
19.994637
 33
0.0
  0
SOLID
  8
DIMS
  5
32C
 10
6.425722
 20
20.041512
 30
0.0
 11
6.425722
 21
19.947762
 31
0.0
 12
6.238222
 22
19.994637
 32
0.0
 13
6.238222
 23
19.994637
 33
0.0
  0
ENDBLK
  8
DIMS
  5
32D
  0
BLOCK
  8
DIMS
  5
331
  2
*D10
 70
     1
 10
0.0
 20
0.0
 30
0.0
  3
*D10
  0
LINE
  8
DIMS
  5
332
 10
8.152838
 20
6.620971
 30
0.0
 11
7.965338
 21
6.620971
 31
0.0
  0
LINE
  8
DIMS
  5
333
 10
8.059088
 20
6.714721
 30
0.0
 11
8.059088
 21
6.527221
 31
0.0
  0
LINE
  8
DIMS
  5
334
 10
7.805753
 20
7.989959
 30
0.0
 11
7.737517
 21
8.358699
 31
0.0
  0
LINE
  8
DIMS
  5
335
 10
7.550017
 20
8.358699
 30
0.0
 11
7.737517
 21
8.358699
 31
0.0
  0
TEXT
  8
DIMS
  5
337
 10
6.603725
 20
8.242976
 30
0.0
 40
0.1875
  1
R1-1/2
  0
SOLID
  8
DIMS
  5
339
 10
7.725543
 20
8.165799
 30
0.0
 11
7.817728
 21
8.182858
 31
0.0
 12
7.805753
 22
7.989959
 32
0.0
 13
7.805753
 23
7.989959
 33
0.0
  0
ENDBLK
  8
DIMS
  5
33A
  0
BLOCK
  8
DIMS
  5
33E
  2
*D11
 70
     1
 10
0.0
 20
0.0
 30
0.0
  3
*D11
  0
LINE
  8
DIMS
  5
33F
 10
10.810318
 20
6.22727
 30
0.0
 11
10.622818
 21
6.22727
 31
0.0
  0
LINE
  8
DIMS
  5
340
 10
10.716568
 20
6.32102
 30
0.0
 11
10.716568
 21
6.13352
 31
0.0
  0
LINE
  8
DIMS
  5
341
 10
10.25862
 20
7.098497
 30
0.0
 11
10.084142
 21
7.430434
 31
0.0
  0
LINE
  8
DIMS
  5
342
 10
9.896642
 20
7.430434
 30
0.0
 11
10.084142
 21
7.430434
 31
0.0
  0
TEXT
  8
DIMS
  5
344
 10
9.434225
 20
7.314711
 30
0.0
 40
0.1875
  1
R1
  0
SOLID
  8
DIMS
  5
346
 10
10.129889
 20
7.242655
 30
0.0
 11
10.212873
 21
7.286275
 31
0.0
 12
10.25862
 22
7.098497
 32
0.0
 13
10.25862
 23
7.098497
 33
0.0
  0
ENDBLK
  8
DIMS
  5
347
  0
BLOCK
  8
DIMS
  5
34B
  2
*D12
 70
     1
 10
0.0
 20
0.0
 30
0.0
  3
*D12
  0
LINE
  8
DIMS
  5
34C
 10
7.271876
 20
14.214393
 30
0.0
 11
7.084376
 21
14.214393
 31
0.0
  0
LINE
  8
DIMS
  5
34D
 10
7.178126
 20
14.308143
 30
0.0
 11
7.178126
 21
14.120643
 31
0.0
  0
LINE
  8
DIMS
  5
34E
 10
7.874097
 20
14.910365
 30
0.0
 11
8.139262
 21
15.17553
 31
0.0
  0
LINE
  8
DIMS
  5
34F
 10
8.326762
 20
15.17553
 30
0.0
 11
8.139262
 21
15.17553
 31
0.0
  0
TEXT
  8
DIMS
  5
351
 10
8.420512
 20
15.059807
 30
0.0
 40
0.1875
  1
R1
  0
SOLID
  8
DIMS
  5
353
 10
7.973534
 20
15.076093
 30
0.0
 11
8.039825
 21
15.009801
 31
0.0
 12
7.874097
 22
14.910365
 32
0.0
 13
7.874097
 23
14.910365
 33
0.0
  0
ENDBLK
  8
DIMS
  5
354
  0
BLOCK
  8
DIMS
  5
358
  2
*D13
 70
     1
 10
0.0
 20
0.0
 30
0.0
  3
*D13
  0
LINE
  8
DIMS
  5
359
 10
14.353625
 20
6.22727
 30
0.0
 11
14.166125
 21
6.22727
 31
0.0
  0
LINE
  8
DIMS
  5
35A
 10
14.259875
 20
6.32102
 30
0.0
 11
14.259875
 21
6.13352
 31
0.0
  0
LINE
  8
DIMS
  5
35B
 10
13.475865
 20
6.822316
 30
0.0
 11
13.177157
 21
7.049028
 31
0.0
  0
LINE
  8
DIMS
  5
35C
 10
12.989657
 20
7.049028
 30
0.0
 11
13.177157
 21
7.049028
 31
0.0
  0
TEXT
  8
DIMS
  5
35E
 10
12.52724
 20
6.933306
 30
0.0
 40
0.1875
  1
R1
  0
SOLID
  8
DIMS
  5
360
 10
13.298172
 20
6.898334
 30
0.0
 11
13.35485
 21
6.973011
 31
0.0
 12
13.475865
 22
6.822316
 32
0.0
 13
13.475865
 23
6.822316
 33
0.0
  0
ENDBLK
  8
DIMS
  5
361
  0
BLOCK
  8
DIMS
  5
365
  2
*D14
 70
     1
 10
0.0
 20
0.0
 30
0.0
  3
*D14
  0
LINE
  8
DIMS
  5
366
 10
17.011106
 20
6.620971
 30
0.0
 11
16.823606
 21
6.620971
 31
0.0
  0
LINE
  8
DIMS
  5
367
 10
16.917356
 20
6.714721
 30
0.0
 11
16.917356
 21
6.527221
 31
0.0
  0
LINE
  8
DIMS
  5
368
 10
17.010828
 20
8.010061
 30
0.0
 11
17.036004
 21
8.384215
 31
0.0
  0
LINE
  8
DIMS
  5
369
 10
17.223504
 20
8.384215
 30
0.0
 11
17.036004
 21
8.384215
 31
0.0
  0
TEXT
  8
DIMS
  5
36B
 10
17.317254
 20
8.268492
 30
0.0
 40
0.1875
  1
R1-1/2
  0
SOLID
  8
DIMS
  5
36D
 10
16.976647
 20
8.200285
 30
0.0
 11
17.070185
 21
8.19399
 31
0.0
 12
17.010828
 22
8.010061
 32
0.0
 13
17.010828
 23
8.010061
 33
0.0
  0
ENDBLK
  8
DIMS
  5
36E
  0
BLOCK
  8
DIMS
  5
372
  2
*D15
 70
     1
 10
0.0
 20
0.0
 30
0.0
  3
*D15
  0
LINE
  8
DIMS
  5
373
 10
17.892068
 20
14.214393
 30
0.0
 11
17.704568
 21
14.214393
 31
0.0
  0
LINE
  8
DIMS
  5
374
 10
17.798318
 20
14.308143
 30
0.0
 11
17.798318
 21
14.120643
 31
0.0
  0
LINE
  8
DIMS
  5
375
 10
17.09188
 20
14.899738
 30
0.0
 11
16.822727
 21
15.160855
 31
0.0
  0
LINE
  8
DIMS
  5
376
 10
16.635227
 20
15.160855
 30
0.0
 11
16.822727
 21
15.160855
 31
0.0
  0
TEXT
  8
DIMS
  5
378
 10
16.17281
 20
15.045132
 30
0.0
 40
0.1875
  1
R1
  0
SOLID
  8
DIMS
  5
37A
 10
16.924664
 20
14.996653
 30
0.0
 11
16.989943
 21
15.063941
 31
0.0
 12
17.09188
 22
14.899738
 32
0.0
 13
17.09188
 23
14.899738
 33
0.0
  0
ENDBLK
  8
DIMS
  5
37B
  0
BLOCK
  8
DIMS
  5
51B
  2
*D16
 70
     1
 10
0.0
 20
0.0
 30
0.0
  3
*D16
  0
LINE
  8
DIMS
  5
51C
 10
12.613222
 20
13.008766
 30
0.0
 11
14.733887
 21
13.008766
 31
0.0
  0
LINE
  8
DIMS
  5
51D
 10
14.384875
 20
6.22727
 30
0.0
 11
14.733887
 21
6.22727
 31
0.0
  0
LINE
  8
DIMS
  5
51E
 10
14.703887
 20
13.008766
 30
0.0
 11
14.703887
 21
6.22727
 31
0.0
  0
TEXT
  8
DIMS
  5
520
 10
14.656734
 20
9.088059
 30
0.0
 40
0.1875
  1
6-3/4 typ
 50
90.0
  0
SOLID
  8
DIMS
  5
522
 10
14.750762
 20
12.821266
 30
0.0
 11
14.657012
 21
12.821266
 31
0.0
 12
14.703887
 22
13.008766
 32
0.0
 13
14.703887
 23
13.008766
 33
0.0
  0
SOLID
  8
DIMS
  5
524
 10
14.657012
 20
6.41477
 30
0.0
 11
14.750762
 21
6.41477
 31
0.0
 12
14.703887
 22
6.22727
 32
0.0
 13
14.703887
 23
6.22727
 33
0.0
  0
ENDBLK
  8
DIMS
  5
525
  0
BLOCK
  8
DIMS
  5
531
  2
*D17
 70
     1
 10
0.0
 20
0.0
 30
0.0
  3
*D17
  0
LINE
  8
DIMS
  5
532
 10
12.488222
 20
13.133766
 30
0.0
 11
12.488222
 21
20.024637
 31
0.0
  0
LINE
  8
DIMS
  5
533
 10
19.229112
 20
15.643705
 30
0.0
 11
19.229112
 21
20.024637
 31
0.0
  0
LINE
  8
DIMS
  5
534
 10
12.488222
 20
19.994637
 30
0.0
 11
19.229112
 21
19.994637
 31
0.0
  0
TEXT
  8
DIMS
  5
536
 10
14.844832
 20
20.04179
 30
0.0
 40
0.1875
  1
6-3/4 typ ref only
  0
SOLID
  8
DIMS
  5
538
 10
12.675722
 20
20.041512
 30
0.0
 11
12.675722
 21
19.947762
 31
0.0
 12
12.488222
 22
19.994637
 32
0.0
 13
12.488222
 23
19.994637
 33
0.0
  0
SOLID
  8
DIMS
  5
53A
 10
19.041612
 20
19.947762
 30
0.0
 11
19.041612
 21
20.041512
 31
0.0
 12
19.229112
 22
19.994637
 32
0.0
 13
19.229112
 23
19.994637
 33
0.0
  0
ENDBLK
  8
DIMS
  5
53B
  0
BLOCK
  8
DIMS
  5
53F
  2
*D18
 70
     1
 10
0.0
 20
0.0
 30
0.0
  3
*D18
  0
LINE
  8
DIMS
  5
540
 10
17.211647
 20
4.849317
 30
0.0
 11
21.09827
 21
4.849317
 31
0.0
  0
LINE
  8
DIMS
  5
541
 10
12.613222
 20
19.189868
 30
0.0
 11
21.09827
 21
19.189868
 31
0.0
  0
LINE
  8
DIMS
  5
542
 10
21.06827
 20
4.849317
 30
0.0
 11
21.06827
 21
19.189868
 31
0.0
  0
TEXT
  8
DIMS
  5
544
 10
21.021117
 20
11.132488
 30
0.0
 40
0.1875
  1
14-1/4 ref only
 50
90.0
  0
SOLID
  8
DIMS
  5
546
 10
21.021395
 20
5.036817
 30
0.0
 11
21.115145
 21
5.036817
 31
0.0
 12
21.06827
 22
4.849317
 32
0.0
 13
21.06827
 23
4.849317
 33
0.0
  0
SOLID
  8
DIMS
  5
548
 10
21.115145
 20
19.002368
 30
0.0
 11
21.021395
 21
19.002368
 31
0.0
 12
21.06827
 22
19.189868
 32
0.0
 13
21.06827
 23
19.189868
 33
0.0
  0
ENDBLK
  8
DIMS
  5
549
  0
BLOCK
  8
DIMS
  5
54D
  2
*D19
 70
     1
 10
0.0
 20
0.0
 30
0.0
  3
*D19
  0
LINE
  8
DIMS
  5
54E
 10
12.488222
 20
12.883766
 30
0.0
 11
12.488222
 21
3.055972
 31
0.0
  0
LINE
  8
DIMS
  5
54F
 10
18.66145
 20
6.29912
 30
0.0
 11
18.66145
 21
3.055972
 31
0.0
  0
LINE
  8
DIMS
  5
550
 10
12.488222
 20
3.085972
 30
0.0
 11
18.66145
 21
3.085972
 31
0.0
  0
TEXT
  8
DIMS
  5
552
 10
14.561002
 20
3.133124
 30
0.0
 40
0.1875
  1
6-1/4 typ ref only
  0
SOLID
  8
DIMS
  5
554
 10
12.675722
 20
3.132847
 30
0.0
 11
12.675722
 21
3.039097
 31
0.0
 12
12.488222
 22
3.085972
 32
0.0
 13
12.488222
 23
3.085972
 33
0.0
  0
SOLID
  8
DIMS
  5
556
 10
18.47395
 20
3.039097
 30
0.0
 11
18.47395
 21
3.132847
 31
0.0
 12
18.66145
 22
3.085972
 32
0.0
 13
18.66145
 23
3.085972
 33
0.0
  0
ENDBLK
  8
DIMS
  5
557
  0
BLOCK
  8
DIMS
  5
55B
  2
*D20
 70
     1
 10
0.0
 20
0.0
 30
0.0
  3
*D20
  0
LINE
  8
DIMS
  5
55C
 10
18.882589
 20
16.020577
 30
0.0
 11
20.09255
 21
16.020577
 31
0.0
  0
LINE
  8
DIMS
  5
55D
 10
17.211647
 20
4.849317
 30
0.0
 11
20.09255
 21
4.849317
 31
0.0
  0
LINE
  8
DIMS
  5
55E
 10
20.06255
 20
16.020577
 30
0.0
 11
20.06255
 21
4.849317
 31
0.0
  0
TEXT
  8
DIMS
  5
560
 10
20.015397
 20
9.340467
 30
0.0
 40
0.1875
  1
11-1/4 typ ref only
 50
90.0
  0
SOLID
  8
DIMS
  5
562
 10
20.109425
 20
15.833077
 30
0.0
 11
20.015675
 21
15.833077
 31
0.0
 12
20.06255
 22
16.020577
 32
0.0
 13
20.06255
 23
16.020577
 33
0.0
  0
SOLID
  8
DIMS
  5
564
 10
20.015675
 20
5.036817
 30
0.0
 11
20.109425
 21
5.036817
 31
0.0
 12
20.06255
 22
4.849317
 32
0.0
 13
20.06255
 23
4.849317
 33
0.0
  0
ENDBLK
  8
DIMS
  5
565
  0
ENDSEC
  0
SECTION
  2
ENTITIES
  0
DIMENSION
  8
DIMS
  5
2A
  2
*D0
 10
6.29619
 20
15.362343
 30
0.0
 11
4.484067
 21
15.964875
 31
0.0
 70
     3
 15
6.180254
 25
15.655189
 35
0.0
210
0.0
220
0.0
230
1.0
  0
TEXT
  8
DIMS
  5
2C
 10
10.79107
 20
21.20653
 30
0.0
 40
0.1875
  1
Garrard 301 Base Template (inches)
210
0.0
220
0.0
230
1.0
  0
POLYLINE
  8
PLINTH
  5
2E
 66
     1
 10
0.0
 20
0.0
 30
0.0
 70
     1
210
0.0
220
0.0
230
1.0
  0
VERTEX
  8
PLINTH
  5
2F
 10
18.236253
 20
13.008766
 30
0.0
  0
VERTEX
  8
PLINTH
  5
30
 10
18.213002
 20
13.525252
 30
0.0
  0
VERTEX
  8
PLINTH
  5
31
 10
18.140292
 20
14.054695
 30
0.0
  0
VERTEX
  8
PLINTH
  5
32
 10
18.014373
 20
14.590384
 30
0.0
  0
VERTEX
  8
PLINTH
  5
33
 10
17.832674
 20
15.124586
 30
0.0
  0
VERTEX
  8
PLINTH
  5
34
 10
17.594106
 20
15.648806
 30
0.0
  0
VERTEX
  8
PLINTH
  5
35
 10
17.299298
 20
16.154145
 30
0.0
  0
VERTEX
  8
PLINTH
  5
36
 10
16.950724
 20
16.63174
 30
0.0
  0
VERTEX
  8
PLINTH
  5
37
 10
16.552694
 20
17.073238
 30
0.0
  0
VERTEX
  8
PLINTH
  5
38
 10
16.111195
 20
17.471269
 30
0.0
  0
VERTEX
  8
PLINTH
  5
39
 10
15.633601
 20
17.819843
 30
0.0
  0
VERTEX
  8
PLINTH
  5
3A
 10
15.128262
 20
18.11465
 30
0.0
  0
VERTEX
  8
PLINTH
  5
3B
 10
14.604042
 20
18.353218
 30
0.0
  0
VERTEX
  8
PLINTH
  5
3C
 10
14.06984
 20
18.534918
 30
0.0
  0
VERTEX
  8
PLINTH
  5
3D
 10
13.534151
 20
18.660836
 30
0.0
  0
VERTEX
  8
PLINTH
  5
3E
 10
13.004708
 20
18.733546
 30
0.0
  0
VERTEX
  8
PLINTH
  5
3F
 10
12.488222
 20
18.756798
 30
0.0
  0
VERTEX
  8
PLINTH
  5
40
 10
11.971736
 20
18.733546
 30
0.0
  0
VERTEX
  8
PLINTH
  5
41
 10
11.442292
 20
18.660836
 30
0.0
  0
VERTEX
  8
PLINTH
  5
42
 10
10.906604
 20
18.534918
 30
0.0
  0
VERTEX
  8
PLINTH
  5
43
 10
10.372402
 20
18.353218
 30
0.0
  0
VERTEX
  8
PLINTH
  5
44
 10
9.848182
 20
18.11465
 30
0.0
  0
VERTEX
  8
PLINTH
  5
45
 10
9.342843
 20
17.819843
 30
0.0
  0
VERTEX
  8
PLINTH
  5
46
 10
8.865248
 20
17.471269
 30
0.0
  0
VERTEX
  8
PLINTH
  5
47
 10
8.42375
 20
17.073238
 30
0.0
  0
VERTEX
  8
PLINTH
  5
48
 10
8.025719
 20
16.63174
 30
0.0
  0
VERTEX
  8
PLINTH
  5
49
 10
7.677145
 20
16.154145
 30
0.0
  0
VERTEX
  8
PLINTH
  5
4A
 10
7.382337
 20
15.648806
 30
0.0
  0
VERTEX
  8
PLINTH
  5
4B
 10
7.143769
 20
15.124586
 30
0.0
  0
VERTEX
  8
PLINTH
  5
4C
 10
6.96207
 20
14.590384
 30
0.0
  0
VERTEX
  8
PLINTH
  5
4D
 10
6.836152
 20
14.054695
 30
0.0
  0
VERTEX
  8
PLINTH
  5
4E
 10
6.763442
 20
13.525252
 30
0.0
  0
VERTEX
  8
PLINTH
  5
4F
 10
6.74019
 20
13.008766
 30
0.0
  0
VERTEX
  8
PLINTH
  5
50
 10
6.763442
 20
12.49228
 30
0.0
  0
VERTEX
  8
PLINTH
  5
51
 10
6.836152
 20
11.962837
 30
0.0
  0
VERTEX
  8
PLINTH
  5
52
 10
6.96207
 20
11.427148
 30
0.0
  0
VERTEX
  8
PLINTH
  5
53
 10
7.143769
 20
10.892946
 30
0.0
  0
VERTEX
  8
PLINTH
  5
54
 10
7.382337
 20
10.368726
 30
0.0
  0
VERTEX
  8
PLINTH
  5
55
 10
7.677145
 20
9.863387
 30
0.0
  0
VERTEX
  8
PLINTH
  5
56
 10
8.025719
 20
9.385793
 30
0.0
  0
VERTEX
  8
PLINTH
  5
57
 10
8.42375
 20
8.944294
 30
0.0
  0
VERTEX
  8
PLINTH
  5
58
 10
8.865248
 20
8.546263
 30
0.0
  0
VERTEX
  8
PLINTH
  5
59
 10
9.342843
 20
8.197689
 30
0.0
  0
VERTEX
  8
PLINTH
  5
5A
 10
9.848182
 20
7.902882
 30
0.0
  0
VERTEX
  8
PLINTH
  5
5B
 10
10.372402
 20
7.664314
 30
0.0
  0
VERTEX
  8
PLINTH
  5
5C
 10
10.906604
 20
7.482615
 30
0.0
  0
VERTEX
  8
PLINTH
  5
5D
 10
11.442292
 20
7.356696
 30
0.0
  0
VERTEX
  8
PLINTH
  5
5E
 10
11.971736
 20
7.283986
 30
0.0
  0
VERTEX
  8
PLINTH
  5
5F
 10
12.488222
 20
7.260735
 30
0.0
  0
VERTEX
  8
PLINTH
  5
60
 10
13.004708
 20
7.283986
 30
0.0
  0
VERTEX
  8
PLINTH
  5
61
 10
13.534151
 20
7.356696
 30
0.0
  0
VERTEX
  8
PLINTH
  5
62
 10
14.06984
 20
7.482615
 30
0.0
  0
VERTEX
  8
PLINTH
  5
63
 10
14.604042
 20
7.664314
 30
0.0
  0
VERTEX
  8
PLINTH
  5
64
 10
15.128262
 20
7.902882
 30
0.0
  0
VERTEX
  8
PLINTH
  5
65
 10
15.633601
 20
8.197689
 30
0.0
  0
VERTEX
  8
PLINTH
  5
66
 10
16.111195
 20
8.546263
 30
0.0
  0
VERTEX
  8
PLINTH
  5
67
 10
16.552694
 20
8.944294
 30
0.0
  0
VERTEX
  8
PLINTH
  5
68
 10
16.950724
 20
9.385793
 30
0.0
  0
VERTEX
  8
PLINTH
  5
69
 10
17.299298
 20
9.863387
 30
0.0
  0
VERTEX
  8
PLINTH
  5
6A
 10
17.594106
 20
10.368726
 30
0.0
  0
VERTEX
  8
PLINTH
  5
6B
 10
17.832674
 20
10.892946
 30
0.0
  0
VERTEX
  8
PLINTH
  5
6C
 10
18.014373
 20
11.427148
 30
0.0
  0
VERTEX
  8
PLINTH
  5
6D
 10
18.140292
 20
11.962837
 30
0.0
  0
VERTEX
  8
PLINTH
  5
6E
 10
18.213002
 20
12.49228
 30
0.0
  0
VERTEX
  8
PLINTH
  5
6F
 10
18.236253
 20
13.008766
 30
0.0
  0
SEQEND
  8
PLINTH
  5
70
  0
POLYLINE
  8
PLINTH
  5
71
 66
     1
 10
0.0
 20
0.0
 30
0.0
210
0.0
220
0.0
230
1.0
  0
VERTEX
  8
PLINTH
  5
72
 10
17.618832
 20
16.455919
 30
0.0
  0
VERTEX
  8
PLINTH
  5
73
 10
17.172584
 20
17.041479
 30
0.0
  0
VERTEX
  8
PLINTH
  5
74
 10
16.647467
 20
17.581152
 30
0.0
  0
VERTEX
  8
PLINTH
  5
75
 10
16.051123
 20
18.059683
 30
0.0
  0
VERTEX
  8
PLINTH
  5
76
 10
15.395009
 20
18.463729
 30
0.0
  0
VERTEX
  8
PLINTH
  5
77
 10
14.693722
 20
18.783002
 30
0.0
  0
VERTEX
  8
PLINTH
  5
78
 10
13.963941
 20
19.011122
 30
0.0
  0
VERTEX
  8
PLINTH
  5
79
 10
13.223133
 20
19.146024
 30
0.0
  0
VERTEX
  8
PLINTH
  5
7A
 10
12.488222
 20
19.189868
 30
0.0
  0
VERTEX
  8
PLINTH
  5
7B
 10
11.753311
 20
19.146024
 30
0.0
  0
VERTEX
  8
PLINTH
  5
7C
 10
11.012502
 20
19.011122
 30
0.0
  0
VERTEX
  8
PLINTH
  5
7D
 10
10.282722
 20
18.783002
 30
0.0
  0
VERTEX
  8
PLINTH
  5
7E
 10
9.581435
 20
18.463729
 30
0.0
  0
VERTEX
  8
PLINTH
  5
7F
 10
8.925321
 20
18.059683
 30
0.0
  0
VERTEX
  8
PLINTH
  5
80
 10
8.328977
 20
17.581152
 30
0.0
  0
VERTEX
  8
PLINTH
  5
81
 10
7.803859
 20
17.041479
 30
0.0
  0
VERTEX
  8
PLINTH
  5
82
 10
7.357612
 20
16.455919
 30
0.0
  0
SEQEND
  8
PLINTH
  5
83
  0
POLYLINE
  8
PLINTH
  5
84
 66
     1
 10
0.0
 20
0.0
 30
0.0
210
0.0
220
0.0
230
1.0
  0
VERTEX
  8
PLINTH
  5
85
 10
6.218855
 20
16.020577
 30
0.0
  0
VERTEX
  8
PLINTH
  5
86
 10
6.540635
 20
16.020577
 30
0.0
  0
SEQEND
  8
PLINTH
  5
87
  0
POLYLINE
  8
PLINTH
  5
88
 66
     1
 10
0.0
 20
0.0
 30
0.0
210
0.0
220
0.0
230
1.0
  0
VERTEX
  8
PLINTH
  5
89
 10
6.218855
 20
16.020577
 30
0.0
  0
VERTEX
  8
PLINTH
  5
8A
 10
6.171593
 20
16.018207
 30
0.0
  0
VERTEX
  8
PLINTH
  5
8B
 10
6.124073
 20
16.010972
 30
0.0
  0
VERTEX
  8
PLINTH
  5
8C
 10
6.077046
 20
15.998792
 30
0.0
  0
VERTEX
  8
PLINTH
  5
8D
 10
6.03128
 20
15.981744
 30
0.0
  0
VERTEX
  8
PLINTH
  5
8E
 10
5.987518
 20
15.960063
 30
0.0
  0
VERTEX
  8
PLINTH
  5
8F
 10
5.946441
 20
15.934129
 30
0.0
  0
VERTEX
  8
PLINTH
  5
90
 10
5.908629
 20
15.904451
 30
0.0
  0
VERTEX
  8
PLINTH
  5
91
 10
5.874541
 20
15.871629
 30
0.0
  0
VERTEX
  8
PLINTH
  5
92
 10
5.843906
 20
15.835562
 30
0.0
  0
VERTEX
  8
PLINTH
  5
93
 10
5.816641
 20
15.795975
 30
0.0
  0
VERTEX
  8
PLINTH
  5
94
 10
5.793317
 20
15.753362
 30
0.0
  0
VERTEX
  8
PLINTH
  5
95
 10
5.774404
 20
15.708335
 30
0.0
  0
VERTEX
  8
PLINTH
  5
96
 10
5.76024
 20
15.661595
 30
0.0
  0
VERTEX
  8
PLINTH
  5
97
 10
5.751014
 20
15.613901
 30
0.0
  0
VERTEX
  8
PLINTH
  5
98
 10
5.746753
 20
15.566022
 30
0.0
  0
VERTEX
  8
PLINTH
  5
99
 10
5.747332
 20
15.518705
 30
0.0
  0
SEQEND
  8
PLINTH
  5
9A
  0
POLYLINE
  8
PLINTH
  5
9B
 66
     1
 10
0.0
 20
0.0
 30
0.0
210
0.0
220
0.0
230
1.0
  0
VERTEX
  8
PLINTH
  5
9C
 10
6.540635
 20
16.020577
 30
0.0
  0
VERTEX
  8
PLINTH
  5
9D
 10
6.65766
 20
16.027559
 30
0.0
  0
VERTEX
  8
PLINTH
  5
9E
 10
6.775623
 20
16.04904
 30
0.0
  0
VERTEX
  8
PLINTH
  5
9F
 10
6.89183
 20
16.085365
 30
0.0
  0
VERTEX
  8
PLINTH
  5
A0
 10
7.0035
 20
16.136204
 30
0.0
  0
VERTEX
  8
PLINTH
  5
A1
 10
7.107976
 20
16.200543
 30
0.0
  0
VERTEX
  8
PLINTH
  5
A2
 10
7.202936
 20
16.276742
 30
0.0
  0
VERTEX
  8
PLINTH
  5
A3
 10
7.286553
 20
16.362677
 30
0.0
  0
VERTEX
  8
PLINTH
  5
A4
 10
7.357612
 20
16.455919
 30
0.0
  0
SEQEND
  8
PLINTH
  5
A5
  0
POLYLINE
  8
PLINTH
  5
A6
 66
     1
 10
0.0
 20
0.0
 30
0.0
210
0.0
220
0.0
230
1.0
  0
VERTEX
  8
PLINTH
  5
A7
 10
6.314993
 20
6.42412
 30
0.0
  0
VERTEX
  8
PLINTH
  5
A8
 10
6.321364
 20
6.282617
 30
0.0
  0
VERTEX
  8
PLINTH
  5
A9
 10
6.341284
 20
6.137564
 30
0.0
  0
VERTEX
  8
PLINTH
  5
AA
 10
6.375783
 20
5.9908
 30
0.0
  0
VERTEX
  8
PLINTH
  5
AB
 10
6.425563
 20
5.844444
 30
0.0
  0
VERTEX
  8
PLINTH
  5
AC
 10
6.490924
 20
5.700822
 30
0.0
  0
VERTEX
  8
PLINTH
  5
AD
 10
6.571693
 20
5.562373
 30
0.0
  0
VERTEX
  8
PLINTH
  5
AE
 10
6.667193
 20
5.431525
 30
0.0
  0
VERTEX
  8
PLINTH
  5
AF
 10
6.776243
 20
5.310566
 30
0.0
  0
VERTEX
  8
PLINTH
  5
B0
 10
6.897201
 20
5.201517
 30
0.0
  0
VERTEX
  8
PLINTH
  5
B1
 10
7.028049
 20
5.106017
 30
0.0
  0
VERTEX
  8
PLINTH
  5
B2
 10
7.166498
 20
5.025248
 30
0.0
  0
VERTEX
  8
PLINTH
  5
B3
 10
7.31012
 20
4.959887
 30
0.0
  0
VERTEX
  8
PLINTH
  5
B4
 10
7.456477
 20
4.910106
 30
0.0
  0
VERTEX
  8
PLINTH
  5
B5
 10
7.603241
 20
4.875608
 30
0.0
  0
VERTEX
  8
PLINTH
  5
B6
 10
7.748294
 20
4.855687
 30
0.0
  0
VERTEX
  8
PLINTH
  5
B7
 10
7.889797
 20
4.849317
 30
0.0
  0
SEQEND
  8
PLINTH
  5
B8
  0
POLYLINE
  8
PLINTH
  5
B9
 66
     1
 10
0.0
 20
0.0
 30
0.0
210
0.0
220
0.0
230
1.0
  0
VERTEX
  8
PLINTH
  5
BA
 10
7.889797
 20
4.849317
 30
0.0
  0
VERTEX
  8
PLINTH
  5
BB
 10
17.086647
 20
4.849317
 30
0.0
  0
SEQEND
  8
PLINTH
  5
BC
  0
POLYLINE
  8
PLINTH
  5
BD
 66
     1
 10
0.0
 20
0.0
 30
0.0
210
0.0
220
0.0
230
1.0
  0
VERTEX
  8
PLINTH
  5
BE
 10
17.618832
 20
16.455919
 30
0.0
  0
VERTEX
  8
PLINTH
  5
BF
 10
17.689891
 20
16.362677
 30
0.0
  0
VERTEX
  8
PLINTH
  5
C0
 10
17.773508
 20
16.276742
 30
0.0
  0
VERTEX
  8
PLINTH
  5
C1
 10
17.868467
 20
16.200543
 30
0.0
  0
VERTEX
  8
PLINTH
  5
C2
 10
17.972944
 20
16.136204
 30
0.0
  0
VERTEX
  8
PLINTH
  5
C3
 10
18.084614
 20
16.085365
 30
0.0
  0
VERTEX
  8
PLINTH
  5
C4
 10
18.200821
 20
16.04904
 30
0.0
  0
VERTEX
  8
PLINTH
  5
C5
 10
18.318784
 20
16.027559
 30
0.0
  0
VERTEX
  8
PLINTH
  5
C6
 10
18.435808
 20
16.020577
 30
0.0
  0
SEQEND
  8
PLINTH
  5
C7
  0
POLYLINE
  8
PLINTH
  5
C8
 66
     1
 10
0.0
 20
0.0
 30
0.0
210
0.0
220
0.0
230
1.0
  0
VERTEX
  8
PLINTH
  5
C9
 10
19.229112
 20
15.518705
 30
0.0
  0
VERTEX
  8
PLINTH
  5
CA
 10
19.229691
 20
15.566022
 30
0.0
  0
VERTEX
  8
PLINTH
  5
CB
 10
19.22543
 20
15.613901
 30
0.0
  0
VERTEX
  8
PLINTH
  5
CC
 10
19.216203
 20
15.661595
 30
0.0
  0
VERTEX
  8
PLINTH
  5
CD
 10
19.20204
 20
15.708335
 30
0.0
  0
VERTEX
  8
PLINTH
  5
CE
 10
19.183127
 20
15.753362
 30
0.0
  0
VERTEX
  8
PLINTH
  5
CF
 10
19.159803
 20
15.795975
 30
0.0
  0
VERTEX
  8
PLINTH
  5
D0
 10
19.132537
 20
15.835562
 30
0.0
  0
VERTEX
  8
PLINTH
  5
D1
 10
19.101903
 20
15.871629
 30
0.0
  0
VERTEX
  8
PLINTH
  5
D2
 10
19.067814
 20
15.904451
 30
0.0
  0
VERTEX
  8
PLINTH
  5
D3
 10
19.030003
 20
15.934129
 30
0.0
  0
VERTEX
  8
PLINTH
  5
D4
 10
18.988926
 20
15.960063
 30
0.0
  0
VERTEX
  8
PLINTH
  5
D5
 10
18.945164
 20
15.981744
 30
0.0
  0
VERTEX
  8
PLINTH
  5
D6
 10
18.899398
 20
15.998792
 30
0.0
  0
VERTEX
  8
PLINTH
  5
D7
 10
18.85237
 20
16.010972
 30
0.0
  0
VERTEX
  8
PLINTH
  5
D8
 10
18.80485
 20
16.018207
 30
0.0
  0
VERTEX
  8
PLINTH
  5
D9
 10
18.757589
 20
16.020577
 30
0.0
  0
SEQEND
  8
PLINTH
  5
DA
  0
POLYLINE
  8
PLINTH
  5
DB
 66
     1
 10
0.0
 20
0.0
 30
0.0
210
0.0
220
0.0
230
1.0
  0
VERTEX
  8
PLINTH
  5
DC
 10
17.086647
 20
4.849317
 30
0.0
  0
VERTEX
  8
PLINTH
  5
DD
 10
17.22815
 20
4.855687
 30
0.0
  0
VERTEX
  8
PLINTH
  5
DE
 10
17.373203
 20
4.875608
 30
0.0
  0
VERTEX
  8
PLINTH
  5
DF
 10
17.519967
 20
4.910106
 30
0.0
  0
VERTEX
  8
PLINTH
  5
E0
 10
17.666324
 20
4.959887
 30
0.0
  0
VERTEX
  8
PLINTH
  5
E1
 10
17.809946
 20
5.025248
 30
0.0
  0
VERTEX
  8
PLINTH
  5
E2
 10
17.948395
 20
5.106017
 30
0.0
  0
VERTEX
  8
PLINTH
  5
E3
 10
18.079243
 20
5.201517
 30
0.0
  0
VERTEX
  8
PLINTH
  5
E4
 10
18.200201
 20
5.310566
 30
0.0
  0
VERTEX
  8
PLINTH
  5
E5
 10
18.30925
 20
5.431525
 30
0.0
  0
VERTEX
  8
PLINTH
  5
E6
 10
18.40475
 20
5.562373
 30
0.0
  0
VERTEX
  8
PLINTH
  5
E7
 10
18.485519
 20
5.700822
 30
0.0
  0
VERTEX
  8
PLINTH
  5
E8
 10
18.550881
 20
5.844444
 30
0.0
  0
VERTEX
  8
PLINTH
  5
E9
 10
18.600661
 20
5.9908
 30
0.0
  0
VERTEX
  8
PLINTH
  5
EA
 10
18.635159
 20
6.137564
 30
0.0
  0
VERTEX
  8
PLINTH
  5
EB
 10
18.65508
 20
6.282617
 30
0.0
  0
VERTEX
  8
PLINTH
  5
EC
 10
18.66145
 20
6.42412
 30
0.0
  0
SEQEND
  8
PLINTH
  5
ED
  0
POLYLINE
  8
PLINTH
  5
EE
 66
     1
 10
0.0
 20
0.0
 30
0.0
210
0.0
220
0.0
230
1.0
  0
VERTEX
  8
PLINTH
  5
EF
 10
18.757589
 20
16.020577
 30
0.0
  0
VERTEX
  8
PLINTH
  5
F0
 10
18.435808
 20
16.020577
 30
0.0
  0
SEQEND
  8
PLINTH
  5
F1
  0
POLYLINE
  8
CUTLINE
  5
F3
 66
     1
 10
0.0
 20
0.0
 30
0.0
210
0.0
220
0.0
230
1.0
  0
VERTEX
  8
CUTLINE
  5
F4
 10
17.041615
 20
16.707175
 30
0.0
  0
VERTEX
  8
CUTLINE
  5
F5
 10
16.613622
 20
17.179221
 30
0.0
  0
VERTEX
  8
CUTLINE
  5
F6
 10
16.127594
 20
17.609482
 30
0.0
  0
VERTEX
  8
CUTLINE
  5
F7
 10
15.590035
 20
17.987759
 30
0.0
  0
VERTEX
  8
CUTLINE
  5
F8
 10
15.009752
 20
18.305322
 30
0.0
  0
VERTEX
  8
CUTLINE
  5
F9
 10
14.397405
 20
18.555534
 30
0.0
  0
VERTEX
  8
CUTLINE
  5
FA
 10
13.764867
 20
18.734305
 30
0.0
  0
VERTEX
  8
CUTLINE
  5
FB
 10
13.124467
 20
18.840302
 30
0.0
  0
VERTEX
  8
CUTLINE
  5
FC
 10
12.488222
 20
18.874908
 30
0.0
  0
VERTEX
  8
CUTLINE
  5
FD
 10
11.851977
 20
18.840302
 30
0.0
  0
VERTEX
  8
CUTLINE
  5
FE
 10
11.211577
 20
18.734305
 30
0.0
  0
VERTEX
  8
CUTLINE
  5
FF
 10
10.579039
 20
18.555534
 30
0.0
  0
VERTEX
  8
CUTLINE
  5
100
 10
9.966692
 20
18.305322
 30
0.0
  0
VERTEX
  8
CUTLINE
  5
101
 10
9.386409
 20
17.987759
 30
0.0
  0
VERTEX
  8
CUTLINE
  5
102
 10
8.84885
 20
17.609482
 30
0.0
  0
VERTEX
  8
CUTLINE
  5
103
 10
8.362822
 20
17.179221
 30
0.0
  0
VERTEX
  8
CUTLINE
  5
104
 10
7.934829
 20
16.707175
 30
0.0
  0
SEQEND
  8
CUTLINE
  5
105
  0
POLYLINE
  8
CUTLINE
  5
106
 66
     1
 10
0.0
 20
0.0
 30
0.0
210
0.0
220
0.0
230
1.0
  0
VERTEX
  8
CUTLINE
  5
107
 10
17.041615
 20
16.707175
 30
0.0
  0
VERTEX
  8
CUTLINE
  5
108
 10
18.56231
 20
14.834932
 30
0.0
  0
SEQEND
  8
CUTLINE
  5
109
  0
POLYLINE
  8
CUTLINE
  5
10A
 66
     1
 10
0.0
 20
0.0
 30
0.0
210
0.0
220
0.0
230
1.0
  0
VERTEX
  8
CUTLINE
  5
10B
 10
18.777056
 20
14.110359
 30
0.0
  0
VERTEX
  8
CUTLINE
  5
10C
 10
18.309587
 20
6.620971
 30
0.0
  0
SEQEND
  8
CUTLINE
  5
10D
  0
POLYLINE
  8
CUTLINE
  5
10E
 66
     1
 10
0.0
 20
0.0
 30
0.0
210
0.0
220
0.0
230
1.0
  0
VERTEX
  8
CUTLINE
  5
10F
 10
10.716568
 20
5.243018
 30
0.0
  0
VERTEX
  8
CUTLINE
  5
110
 10
14.259875
 20
5.243018
 30
0.0
  0
SEQEND
  8
CUTLINE
  5
111
  0
POLYLINE
  8
CUTLINE
  5
112
 66
     1
 10
0.0
 20
0.0
 30
0.0
210
0.0
220
0.0
230
1.0
  0
VERTEX
  8
CUTLINE
  5
113
 10
6.199387
 20
14.110359
 30
0.0
  0
VERTEX
  8
CUTLINE
  5
114
 10
6.666857
 20
6.620971
 30
0.0
  0
SEQEND
  8
CUTLINE
  5
115
  0
POLYLINE
  8
CUTLINE
 62
     7
  5
116
 66
     1
 10
0.0
 20
0.0
 30
0.0
210
0.0
220
0.0
230
1.0
  0
VERTEX
  8
CUTLINE
 62
     7
  5
117
 10
6.666857
 20
6.620971
 30
0.0
  0
VERTEX
  8
CUTLINE
 62
     7
  5
118
 10
6.680946
 20
6.423406
 30
0.0
  0
VERTEX
  8
CUTLINE
 62
     7
  5
119
 10
6.724816
 20
6.223447
 30
0.0
  0
VERTEX
  8
CUTLINE
 62
     7
  5
11A
 10
6.799528
 20
6.027829
 30
0.0
  0
VERTEX
  8
CUTLINE
 62
     7
  5
11B
 10
6.90409
 20
5.843611
 30
0.0
  0
VERTEX
  8
CUTLINE
 62
     7
  5
11C
 10
7.035389
 20
5.677388
 30
0.0
  0
VERTEX
  8
CUTLINE
 62
     7
  5
11D
 10
7.188487
 20
5.534527
 30
0.0
  0
VERTEX
  8
CUTLINE
 62
     7
  5
11E
 10
7.357218
 20
5.418604
 30
0.0
  0
VERTEX
  8
CUTLINE
 62
     7
  5
11F
 10
7.534942
 20
5.331173
 30
0.0
  0
VERTEX
  8
CUTLINE
 62
     7
  5
120
 10
7.723275
 20
5.269846
 30
0.0
  0
VERTEX
  8
CUTLINE
 62
     7
  5
121
 10
7.925038
 20
5.235208
 30
0.0
  0
VERTEX
  8
CUTLINE
 62
     7
  5
122
 10
8.134392
 20
5.230778
 30
0.0
  0
VERTEX
  8
CUTLINE
 62
     7
  5
123
 10
8.344421
 20
5.258292
 30
0.0
  0
VERTEX
  8
CUTLINE
 62
     7
  5
124
 10
8.547845
 20
5.317351
 30
0.0
  0
VERTEX
  8
CUTLINE
 62
     7
  5
125
 10
8.737834
 20
5.4054
 30
0.0
  0
VERTEX
  8
CUTLINE
 62
     7
  5
126
 10
8.908751
 20
5.518075
 30
0.0
  0
VERTEX
  8
CUTLINE
 62
     7
  5
127
 10
9.056659
 20
5.649807
 30
0.0
  0
SEQEND
  8
CUTLINE
 62
     7
  5
128
  0
POLYLINE
  8
CUTLINE
 62
     7
  5
129
 66
     1
 10
0.0
 20
0.0
 30
0.0
210
0.0
220
0.0
230
1.0
  0
VERTEX
  8
CUTLINE
 62
     7
  5
12A
 10
9.915723
 20
5.655082
 30
0.0
  0
VERTEX
  8
CUTLINE
 62
     7
  5
12B
 10
9.987236
 20
5.566341
 30
0.0
  0
VERTEX
  8
CUTLINE
 62
     7
  5
12C
 10
10.070373
 20
5.484853
 30
0.0
  0
VERTEX
  8
CUTLINE
 62
     7
  5
12D
 10
10.163949
 20
5.412799
 30
0.0
  0
VERTEX
  8
CUTLINE
 62
     7
  5
12E
 10
10.266249
 20
5.352076
 30
0.0
  0
VERTEX
  8
CUTLINE
 62
     7
  5
12F
 10
10.375128
 20
5.304139
 30
0.0
  0
VERTEX
  8
CUTLINE
 62
     7
  5
130
 10
10.488155
 20
5.269889
 30
0.0
  0
VERTEX
  8
CUTLINE
 62
     7
  5
131
 10
10.60279
 20
5.249616
 30
0.0
  0
VERTEX
  8
CUTLINE
 62
     7
  5
132
 10
10.716568
 20
5.243018
 30
0.0
  0
SEQEND
  8
CUTLINE
 62
     7
  5
133
  0
POLYLINE
  8
CUTLINE
 62
     7
  5
134
 66
     1
 10
0.0
 20
0.0
 30
0.0
210
0.0
220
0.0
230
1.0
  0
VERTEX
  8
CUTLINE
 62
     7
  5
135
 10
9.933088
 20
5.631526
 30
0.0
  0
VERTEX
  8
CUTLINE
 62
     7
  5
136
 10
9.89466
 20
5.680465
 30
0.0
  0
VERTEX
  8
CUTLINE
 62
     7
  5
137
 10
9.8499
 20
5.725554
 30
0.0
  0
VERTEX
  8
CUTLINE
 62
     7
  5
138
 10
9.799431
 20
5.765617
 30
0.0
  0
VERTEX
  8
CUTLINE
 62
     7
  5
139
 10
9.744157
 20
5.799628
 30
0.0
  0
VERTEX
  8
CUTLINE
 62
     7
  5
13A
 10
9.685215
 20
5.826789
 30
0.0
  0
VERTEX
  8
CUTLINE
 62
     7
  5
13B
 10
9.623897
 20
5.846596
 30
0.0
  0
VERTEX
  8
CUTLINE
 62
     7
  5
13C
 10
9.56156
 20
5.858865
 30
0.0
  0
VERTEX
  8
CUTLINE
 62
     7
  5
13D
 10
9.499527
 20
5.863731
 30
0.0
  0
VERTEX
  8
CUTLINE
 62
     7
  5
13E
 10
9.437345
 20
5.861456
 30
0.0
  0
VERTEX
  8
CUTLINE
 62
     7
  5
13F
 10
9.37455
 20
5.851797
 30
0.0
  0
VERTEX
  8
CUTLINE
 62
     7
  5
140
 10
9.31246
 20
5.834564
 30
0.0
  0
VERTEX
  8
CUTLINE
 62
     7
  5
141
 10
9.252436
 20
5.809884
 30
0.0
  0
VERTEX
  8
CUTLINE
 62
     7
  5
142
 10
9.195792
 20
5.778209
 30
0.0
  0
VERTEX
  8
CUTLINE
 62
     7
  5
143
 10
9.143696
 20
5.740285
 30
0.0
  0
VERTEX
  8
CUTLINE
 62
     7
  5
144
 10
9.097095
 20
5.697101
 30
0.0
  0
VERTEX
  8
CUTLINE
 62
     7
  5
145
 10
9.056659
 20
5.649807
 30
0.0
  0
SEQEND
  8
CUTLINE
 62
     7
  5
146
  0
POLYLINE
  8
CUTLINE
 62
     7
  5
147
 66
     1
 10
0.0
 20
0.0
 30
0.0
210
0.0
220
0.0
230
1.0
  0
VERTEX
  8
CUTLINE
 62
     7
  5
148
 10
6.414134
 20
14.834932
 30
0.0
  0
VERTEX
  8
CUTLINE
 62
     7
  5
149
 10
6.35772
 20
14.758163
 30
0.0
  0
VERTEX
  8
CUTLINE
 62
     7
  5
14A
 10
6.308336
 20
14.675063
 30
0.0
  0
VERTEX
  8
CUTLINE
 62
     7
  5
14B
 10
6.266979
 20
14.586634
 30
0.0
  0
VERTEX
  8
CUTLINE
 62
     7
  5
14C
 10
6.234448
 20
14.494077
 30
0.0
  0
VERTEX
  8
CUTLINE
 62
     7
  5
14D
 10
6.211292
 20
14.398742
 30
0.0
  0
VERTEX
  8
CUTLINE
 62
     7
  5
14E
 10
6.197786
 20
14.302059
 30
0.0
  0
VERTEX
  8
CUTLINE
 62
     7
  5
14F
 10
6.193914
 20
14.20547
 30
0.0
  0
VERTEX
  8
CUTLINE
 62
     7
  5
150
 10
6.199387
 20
14.110359
 30
0.0
  0
SEQEND
  8
CUTLINE
 62
     7
  5
151
  0
POLYLINE
  8
CUTLINE
 62
     7
  5
152
 66
     1
 10
0.0
 20
0.0
 30
0.0
210
0.0
220
0.0
230
1.0
  0
VERTEX
  8
CUTLINE
 62
     7
  5
153
 10
7.934829
 20
16.707175
 30
0.0
  0
VERTEX
  8
CUTLINE
 62
     7
  5
154
 10
6.414134
 20
14.834932
 30
0.0
  0
SEQEND
  8
CUTLINE
 62
     7
  5
155
  0
POLYLINE
  8
CUTLINE
 62
     7
  5
156
 66
     1
 10
0.0
 20
0.0
 30
0.0
210
0.0
220
0.0
230
1.0
  0
VERTEX
  8
CUTLINE
 62
     7
  5
157
 10
18.777056
 20
14.110359
 30
0.0
  0
VERTEX
  8
CUTLINE
 62
     7
  5
158
 10
18.782529
 20
14.20547
 30
0.0
  0
VERTEX
  8
CUTLINE
 62
     7
  5
159
 10
18.778658
 20
14.302059
 30
0.0
  0
VERTEX
  8
CUTLINE
 62
     7
  5
15A
 10
18.765152
 20
14.398742
 30
0.0
  0
VERTEX
  8
CUTLINE
 62
     7
  5
15B
 10
18.741996
 20
14.494077
 30
0.0
  0
VERTEX
  8
CUTLINE
 62
     7
  5
15C
 10
18.709465
 20
14.586634
 30
0.0
  0
VERTEX
  8
CUTLINE
 62
     7
  5
15D
 10
18.668108
 20
14.675063
 30
0.0
  0
VERTEX
  8
CUTLINE
 62
     7
  5
15E
 10
18.618724
 20
14.758163
 30
0.0
  0
VERTEX
  8
CUTLINE
 62
     7
  5
15F
 10
18.56231
 20
14.834932
 30
0.0
  0
SEQEND
  8
CUTLINE
 62
     7
  5
160
  0
POLYLINE
  8
CUTLINE
 62
     7
  5
161
 66
     1
 10
0.0
 20
0.0
 30
0.0
210
0.0
220
0.0
230
1.0
  0
VERTEX
  8
CUTLINE
 62
     7
  5
162
 10
15.919784
 20
5.649807
 30
0.0
  0
VERTEX
  8
CUTLINE
 62
     7
  5
163
 10
16.067692
 20
5.518075
 30
0.0
  0
VERTEX
  8
CUTLINE
 62
     7
  5
164
 10
16.23861
 20
5.4054
 30
0.0
  0
VERTEX
  8
CUTLINE
 62
     7
  5
165
 10
16.428599
 20
5.317351
 30
0.0
  0
VERTEX
  8
CUTLINE
 62
     7
  5
166
 10
16.632023
 20
5.258292
 30
0.0
  0
VERTEX
  8
CUTLINE
 62
     7
  5
167
 10
16.842052
 20
5.230778
 30
0.0
  0
VERTEX
  8
CUTLINE
 62
     7
  5
168
 10
17.051405
 20
5.235208
 30
0.0
  0
VERTEX
  8
CUTLINE
 62
     7
  5
169
 10
17.253168
 20
5.269846
 30
0.0
  0
VERTEX
  8
CUTLINE
 62
     7
  5
16A
 10
17.441502
 20
5.331173
 30
0.0
  0
VERTEX
  8
CUTLINE
 62
     7
  5
16B
 10
17.619226
 20
5.418604
 30
0.0
  0
VERTEX
  8
CUTLINE
 62
     7
  5
16C
 10
17.787957
 20
5.534527
 30
0.0
  0
VERTEX
  8
CUTLINE
 62
     7
  5
16D
 10
17.941055
 20
5.677388
 30
0.0
  0
VERTEX
  8
CUTLINE
 62
     7
  5
16E
 10
18.072354
 20
5.843611
 30
0.0
  0
VERTEX
  8
CUTLINE
 62
     7
  5
16F
 10
18.176915
 20
6.027829
 30
0.0
  0
VERTEX
  8
CUTLINE
 62
     7
  5
170
 10
18.251628
 20
6.223447
 30
0.0
  0
VERTEX
  8
CUTLINE
 62
     7
  5
171
 10
18.295498
 20
6.423406
 30
0.0
  0
VERTEX
  8
CUTLINE
 62
     7
  5
172
 10
18.309587
 20
6.620971
 30
0.0
  0
SEQEND
  8
CUTLINE
 62
     7
  5
173
  0
POLYLINE
  8
CUTLINE
 62
     7
  5
174
 66
     1
 10
0.0
 20
0.0
 30
0.0
210
0.0
220
0.0
230
1.0
  0
VERTEX
  8
CUTLINE
 62
     7
  5
175
 10
14.259875
 20
5.243018
 30
0.0
  0
VERTEX
  8
CUTLINE
 62
     7
  5
176
 10
14.373654
 20
5.249616
 30
0.0
  0
VERTEX
  8
CUTLINE
 62
     7
  5
177
 10
14.488289
 20
5.269889
 30
0.0
  0
VERTEX
  8
CUTLINE
 62
     7
  5
178
 10
14.601315
 20
5.304139
 30
0.0
  0
VERTEX
  8
CUTLINE
 62
     7
  5
179
 10
14.710195
 20
5.352076
 30
0.0
  0
VERTEX
  8
CUTLINE
 62
     7
  5
17A
 10
14.812495
 20
5.412799
 30
0.0
  0
VERTEX
  8
CUTLINE
 62
     7
  5
17B
 10
14.906071
 20
5.484853
 30
0.0
  0
VERTEX
  8
CUTLINE
 62
     7
  5
17C
 10
14.989207
 20
5.566341
 30
0.0
  0
VERTEX
  8
CUTLINE
 62
     7
  5
17D
 10
15.060721
 20
5.655082
 30
0.0
  0
SEQEND
  8
CUTLINE
 62
     7
  5
17E
  0
POLYLINE
  8
CUTLINE
 62
     7
  5
17F
 66
     1
 10
0.0
 20
0.0
 30
0.0
210
0.0
220
0.0
230
1.0
  0
VERTEX
  8
CUTLINE
 62
     7
  5
180
 10
15.919784
 20
5.649807
 30
0.0
  0
VERTEX
  8
CUTLINE
 62
     7
  5
181
 10
15.879348
 20
5.697101
 30
0.0
  0
VERTEX
  8
CUTLINE
 62
     7
  5
182
 10
15.832747
 20
5.740285
 30
0.0
  0
VERTEX
  8
CUTLINE
 62
     7
  5
183
 10
15.780652
 20
5.778209
 30
0.0
  0
VERTEX
  8
CUTLINE
 62
     7
  5
184
 10
15.724008
 20
5.809884
 30
0.0
  0
VERTEX
  8
CUTLINE
 62
     7
  5
185
 10
15.663984
 20
5.834564
 30
0.0
  0
VERTEX
  8
CUTLINE
 62
     7
  5
186
 10
15.601894
 20
5.851797
 30
0.0
  0
VERTEX
  8
CUTLINE
 62
     7
  5
187
 10
15.539099
 20
5.861456
 30
0.0
  0
VERTEX
  8
CUTLINE
 62
     7
  5
188
 10
15.476917
 20
5.863731
 30
0.0
  0
VERTEX
  8
CUTLINE
 62
     7
  5
189
 10
15.414884
 20
5.858865
 30
0.0
  0
VERTEX
  8
CUTLINE
 62
     7
  5
18A
 10
15.352547
 20
5.846596
 30
0.0
  0
VERTEX
  8
CUTLINE
 62
     7
  5
18B
 10
15.291229
 20
5.826789
 30
0.0
  0
VERTEX
  8
CUTLINE
 62
     7
  5
18C
 10
15.232287
 20
5.799628
 30
0.0
  0
VERTEX
  8
CUTLINE
 62
     7
  5
18D
 10
15.177013
 20
5.765617
 30
0.0
  0
VERTEX
  8
CUTLINE
 62
     7
  5
18E
 10
15.126544
 20
5.725554
 30
0.0
  0
VERTEX
  8
CUTLINE
 62
     7
  5
18F
 10
15.081784
 20
5.680465
 30
0.0
  0
VERTEX
  8
CUTLINE
 62
     7
  5
190
 10
15.043355
 20
5.631526
 30
0.0
  0
SEQEND
  8
CUTLINE
 62
     7
  5
191
  0
POLYLINE
  8
HOLE
 62
     5
  5
193
 66
     1
 10
0.0
 20
0.0
 30
0.0
 70
     1
210
0.0
220
0.0
230
1.0
  0
VERTEX
  8
HOLE
 62
     5
  5
194
 10
9.645702
 20
5.321758
 30
0.0
  0
VERTEX
  8
HOLE
 62
     5
  5
195
 10
9.645065
 20
5.335908
 30
0.0
  0
VERTEX
  8
HOLE
 62
     5
  5
196
 10
9.643073
 20
5.350414
 30
0.0
  0
VERTEX
  8
HOLE
 62
     5
  5
197
 10
9.639623
 20
5.36509
 30
0.0
  0
VERTEX
  8
HOLE
 62
     5
  5
198
 10
9.634645
 20
5.379726
 30
0.0
  0
VERTEX
  8
HOLE
 62
     5
  5
199
 10
9.628109
 20
5.394088
 30
0.0
  0
VERTEX
  8
HOLE
 62
     5
  5
19A
 10
9.620032
 20
5.407933
 30
0.0
  0
VERTEX
  8
HOLE
 62
     5
  5
19B
 10
9.610482
 20
5.421018
 30
0.0
  0
VERTEX
  8
HOLE
 62
     5
  5
19C
 10
9.599577
 20
5.433114
 30
0.0
  0
VERTEX
  8
HOLE
 62
     5
  5
19D
 10
9.587481
 20
5.444019
 30
0.0
  0
VERTEX
  8
HOLE
 62
     5
  5
19E
 10
9.574397
 20
5.453568
 30
0.0
  0
VERTEX
  8
HOLE
 62
     5
  5
19F
 10
9.560552
 20
5.461645
 30
0.0
  0
VERTEX
  8
HOLE
 62
     5
  5
1A0
 10
9.54619
 20
5.468182
 30
0.0
  0
VERTEX
  8
HOLE
 62
     5
  5
1A1
 10
9.531554
 20
5.47316
 30
0.0
  0
VERTEX
  8
HOLE
 62
     5
  5
1A2
 10
9.516877
 20
5.476609
 30
0.0
  0
VERTEX
  8
HOLE
 62
     5
  5
1A3
 10
9.502372
 20
5.478601
 30
0.0
  0
VERTEX
  8
HOLE
 62
     5
  5
1A4
 10
9.488222
 20
5.479238
 30
0.0
  0
VERTEX
  8
HOLE
 62
     5
  5
1A5
 10
9.474072
 20
5.478601
 30
0.0
  0
VERTEX
  8
HOLE
 62
     5
  5
1A6
 10
9.459566
 20
5.476609
 30
0.0
  0
VERTEX
  8
HOLE
 62
     5
  5
1A7
 10
9.44489
 20
5.47316
 30
0.0
  0
VERTEX
  8
HOLE
 62
     5
  5
1A8
 10
9.430254
 20
5.468182
 30
0.0
  0
VERTEX
  8
HOLE
 62
     5
  5
1A9
 10
9.415892
 20
5.461645
 30
0.0
  0
VERTEX
  8
HOLE
 62
     5
  5
1AA
 10
9.402047
 20
5.453568
 30
0.0
  0
VERTEX
  8
HOLE
 62
     5
  5
1AB
 10
9.388962
 20
5.444019
 30
0.0
  0
VERTEX
  8
HOLE
 62
     5
  5
1AC
 10
9.376866
 20
5.433114
 30
0.0
  0
VERTEX
  8
HOLE
 62
     5
  5
1AD
 10
9.365961
 20
5.421018
 30
0.0
  0
VERTEX
  8
HOLE
 62
     5
  5
1AE
 10
9.356412
 20
5.407933
 30
0.0
  0
VERTEX
  8
HOLE
 62
     5
  5
1AF
 10
9.348335
 20
5.394088
 30
0.0
  0
VERTEX
  8
HOLE
 62
     5
  5
1B0
 10
9.341798
 20
5.379726
 30
0.0
  0
VERTEX
  8
HOLE
 62
     5
  5
1B1
 10
9.33682
 20
5.36509
 30
0.0
  0
VERTEX
  8
HOLE
 62
     5
  5
1B2
 10
9.333371
 20
5.350414
 30
0.0
  0
VERTEX
  8
HOLE
 62
     5
  5
1B3
 10
9.331379
 20
5.335908
 30
0.0
  0
VERTEX
  8
HOLE
 62
     5
  5
1B4
 10
9.330742
 20
5.321758
 30
0.0
  0
VERTEX
  8
HOLE
 62
     5
  5
1B5
 10
9.331379
 20
5.307608
 30
0.0
  0
VERTEX
  8
HOLE
 62
     5
  5
1B6
 10
9.333371
 20
5.293103
 30
0.0
  0
VERTEX
  8
HOLE
 62
     5
  5
1B7
 10
9.33682
 20
5.278426
 30
0.0
  0
VERTEX
  8
HOLE
 62
     5
  5
1B8
 10
9.341798
 20
5.26379
 30
0.0
  0
VERTEX
  8
HOLE
 62
     5
  5
1B9
 10
9.348335
 20
5.249428
 30
0.0
  0
VERTEX
  8
HOLE
 62
     5
  5
1BA
 10
9.356412
 20
5.235583
 30
0.0
  0
VERTEX
  8
HOLE
 62
     5
  5
1BB
 10
9.365961
 20
5.222499
 30
0.0
  0
VERTEX
  8
HOLE
 62
     5
  5
1BC
 10
9.376866
 20
5.210403
 30
0.0
  0
VERTEX
  8
HOLE
 62
     5
  5
1BD
 10
9.388962
 20
5.199498
 30
0.0
  0
VERTEX
  8
HOLE
 62
     5
  5
1BE
 10
9.402047
 20
5.189948
 30
0.0
  0
VERTEX
  8
HOLE
 62
     5
  5
1BF
 10
9.415892
 20
5.181871
 30
0.0
  0
VERTEX
  8
HOLE
 62
     5
  5
1C0
 10
9.430254
 20
5.175335
 30
0.0
  0
VERTEX
  8
HOLE
 62
     5
  5
1C1
 10
9.44489
 20
5.170357
 30
0.0
  0
VERTEX
  8
HOLE
 62
     5
  5
1C2
 10
9.459566
 20
5.166907
 30
0.0
  0
VERTEX
  8
HOLE
 62
     5
  5
1C3
 10
9.474072
 20
5.164915
 30
0.0
  0
VERTEX
  8
HOLE
 62
     5
  5
1C4
 10
9.488222
 20
5.164278
 30
0.0
  0
VERTEX
  8
HOLE
 62
     5
  5
1C5
 10
9.502372
 20
5.164915
 30
0.0
  0
VERTEX
  8
HOLE
 62
     5
  5
1C6
 10
9.516877
 20
5.166907
 30
0.0
  0
VERTEX
  8
HOLE
 62
     5
  5
1C7
 10
9.531554
 20
5.170357
 30
0.0
  0
VERTEX
  8
HOLE
 62
     5
  5
1C8
 10
9.54619
 20
5.175335
 30
0.0
  0
VERTEX
  8
HOLE
 62
     5
  5
1C9
 10
9.560552
 20
5.181871
 30
0.0
  0
VERTEX
  8
HOLE
 62
     5
  5
1CA
 10
9.574397
 20
5.189948
 30
0.0
  0
VERTEX
  8
HOLE
 62
     5
  5
1CB
 10
9.587481
 20
5.199498
 30
0.0
  0
VERTEX
  8
HOLE
 62
     5
  5
1CC
 10
9.599577
 20
5.210403
 30
0.0
  0
VERTEX
  8
HOLE
 62
     5
  5
1CD
 10
9.610482
 20
5.222499
 30
0.0
  0
VERTEX
  8
HOLE
 62
     5
  5
1CE
 10
9.620032
 20
5.235583
 30
0.0
  0
VERTEX
  8
HOLE
 62
     5
  5
1CF
 10
9.628109
 20
5.249428
 30
0.0
  0
VERTEX
  8
HOLE
 62
     5
  5
1D0
 10
9.634645
 20
5.26379
 30
0.0
  0
VERTEX
  8
HOLE
 62
     5
  5
1D1
 10
9.639623
 20
5.278426
 30
0.0
  0
VERTEX
  8
HOLE
 62
     5
  5
1D2
 10
9.643073
 20
5.293103
 30
0.0
  0
VERTEX
  8
HOLE
 62
     5
  5
1D3
 10
9.645065
 20
5.307608
 30
0.0
  0
VERTEX
  8
HOLE
 62
     5
  5
1D4
 10
9.645702
 20
5.321758
 30
0.0
  0
SEQEND
  8
HOLE
 62
     5
  5
1D5
  0
POLYLINE
  8
HOLE
 62
     5
  5
1D6
 66
     1
 10
0.0
 20
0.0
 30
0.0
 70
     1
210
0.0
220
0.0
230
1.0
  0
VERTEX
  8
HOLE
 62
     5
  5
1D7
 10
15.645702
 20
5.321758
 30
0.0
  0
VERTEX
  8
HOLE
 62
     5
  5
1D8
 10
15.645065
 20
5.335908
 30
0.0
  0
VERTEX
  8
HOLE
 62
     5
  5
1D9
 10
15.643073
 20
5.350414
 30
0.0
  0
VERTEX
  8
HOLE
 62
     5
  5
1DA
 10
15.639623
 20
5.36509
 30
0.0
  0
VERTEX
  8
HOLE
 62
     5
  5
1DB
 10
15.634645
 20
5.379726
 30
0.0
  0
VERTEX
  8
HOLE
 62
     5
  5
1DC
 10
15.628109
 20
5.394088
 30
0.0
  0
VERTEX
  8
HOLE
 62
     5
  5
1DD
 10
15.620032
 20
5.407933
 30
0.0
  0
VERTEX
  8
HOLE
 62
     5
  5
1DE
 10
15.610482
 20
5.421018
 30
0.0
  0
VERTEX
  8
HOLE
 62
     5
  5
1DF
 10
15.599577
 20
5.433114
 30
0.0
  0
VERTEX
  8
HOLE
 62
     5
  5
1E0
 10
15.587481
 20
5.444019
 30
0.0
  0
VERTEX
  8
HOLE
 62
     5
  5
1E1
 10
15.574397
 20
5.453568
 30
0.0
  0
VERTEX
  8
HOLE
 62
     5
  5
1E2
 10
15.560552
 20
5.461645
 30
0.0
  0
VERTEX
  8
HOLE
 62
     5
  5
1E3
 10
15.54619
 20
5.468182
 30
0.0
  0
VERTEX
  8
HOLE
 62
     5
  5
1E4
 10
15.531554
 20
5.47316
 30
0.0
  0
VERTEX
  8
HOLE
 62
     5
  5
1E5
 10
15.516877
 20
5.476609
 30
0.0
  0
VERTEX
  8
HOLE
 62
     5
  5
1E6
 10
15.502372
 20
5.478601
 30
0.0
  0
VERTEX
  8
HOLE
 62
     5
  5
1E7
 10
15.488222
 20
5.479238
 30
0.0
  0
VERTEX
  8
HOLE
 62
     5
  5
1E8
 10
15.474072
 20
5.478601
 30
0.0
  0
VERTEX
  8
HOLE
 62
     5
  5
1E9
 10
15.459566
 20
5.476609
 30
0.0
  0
VERTEX
  8
HOLE
 62
     5
  5
1EA
 10
15.44489
 20
5.47316
 30
0.0
  0
VERTEX
  8
HOLE
 62
     5
  5
1EB
 10
15.430254
 20
5.468182
 30
0.0
  0
VERTEX
  8
HOLE
 62
     5
  5
1EC
 10
15.415892
 20
5.461645
 30
0.0
  0
VERTEX
  8
HOLE
 62
     5
  5
1ED
 10
15.402047
 20
5.453568
 30
0.0
  0
VERTEX
  8
HOLE
 62
     5
  5
1EE
 10
15.388962
 20
5.444019
 30
0.0
  0
VERTEX
  8
HOLE
 62
     5
  5
1EF
 10
15.376866
 20
5.433114
 30
0.0
  0
VERTEX
  8
HOLE
 62
     5
  5
1F0
 10
15.365961
 20
5.421018
 30
0.0
  0
VERTEX
  8
HOLE
 62
     5
  5
1F1
 10
15.356412
 20
5.407933
 30
0.0
  0
VERTEX
  8
HOLE
 62
     5
  5
1F2
 10
15.348335
 20
5.394088
 30
0.0
  0
VERTEX
  8
HOLE
 62
     5
  5
1F3
 10
15.341798
 20
5.379726
 30
0.0
  0
VERTEX
  8
HOLE
 62
     5
  5
1F4
 10
15.33682
 20
5.36509
 30
0.0
  0
VERTEX
  8
HOLE
 62
     5
  5
1F5
 10
15.333371
 20
5.350414
 30
0.0
  0
VERTEX
  8
HOLE
 62
     5
  5
1F6
 10
15.331379
 20
5.335908
 30
0.0
  0
VERTEX
  8
HOLE
 62
     5
  5
1F7
 10
15.330742
 20
5.321758
 30
0.0
  0
VERTEX
  8
HOLE
 62
     5
  5
1F8
 10
15.331379
 20
5.307608
 30
0.0
  0
VERTEX
  8
HOLE
 62
     5
  5
1F9
 10
15.333371
 20
5.293103
 30
0.0
  0
VERTEX
  8
HOLE
 62
     5
  5
1FA
 10
15.33682
 20
5.278426
 30
0.0
  0
VERTEX
  8
HOLE
 62
     5
  5
1FB
 10
15.341798
 20
5.26379
 30
0.0
  0
VERTEX
  8
HOLE
 62
     5
  5
1FC
 10
15.348335
 20
5.249428
 30
0.0
  0
VERTEX
  8
HOLE
 62
     5
  5
1FD
 10
15.356412
 20
5.235583
 30
0.0
  0
VERTEX
  8
HOLE
 62
     5
  5
1FE
 10
15.365961
 20
5.222499
 30
0.0
  0
VERTEX
  8
HOLE
 62
     5
  5
1FF
 10
15.376866
 20
5.210403
 30
0.0
  0
VERTEX
  8
HOLE
 62
     5
  5
200
 10
15.388962
 20
5.199498
 30
0.0
  0
VERTEX
  8
HOLE
 62
     5
  5
201
 10
15.402047
 20
5.189948
 30
0.0
  0
VERTEX
  8
HOLE
 62
     5
  5
202
 10
15.415892
 20
5.181871
 30
0.0
  0
VERTEX
  8
HOLE
 62
     5
  5
203
 10
15.430254
 20
5.175335
 30
0.0
  0
VERTEX
  8
HOLE
 62
     5
  5
204
 10
15.44489
 20
5.170357
 30
0.0
  0
VERTEX
  8
HOLE
 62
     5
  5
205
 10
15.459566
 20
5.166907
 30
0.0
  0
VERTEX
  8
HOLE
 62
     5
  5
206
 10
15.474072
 20
5.164915
 30
0.0
  0
VERTEX
  8
HOLE
 62
     5
  5
207
 10
15.488222
 20
5.164278
 30
0.0
  0
VERTEX
  8
HOLE
 62
     5
  5
208
 10
15.502372
 20
5.164915
 30
0.0
  0
VERTEX
  8
HOLE
 62
     5
  5
209
 10
15.516877
 20
5.166907
 30
0.0
  0
VERTEX
  8
HOLE
 62
     5
  5
20A
 10
15.531554
 20
5.170357
 30
0.0
  0
VERTEX
  8
HOLE
 62
     5
  5
20B
 10
15.54619
 20
5.175335
 30
0.0
  0
VERTEX
  8
HOLE
 62
     5
  5
20C
 10
15.560552
 20
5.181871
 30
0.0
  0
VERTEX
  8
HOLE
 62
     5
  5
20D
 10
15.574397
 20
5.189948
 30
0.0
  0
VERTEX
  8
HOLE
 62
     5
  5
20E
 10
15.587481
 20
5.199498
 30
0.0
  0
VERTEX
  8
HOLE
 62
     5
  5
20F
 10
15.599577
 20
5.210403
 30
0.0
  0
VERTEX
  8
HOLE
 62
     5
  5
210
 10
15.610482
 20
5.222499
 30
0.0
  0
VERTEX
  8
HOLE
 62
     5
  5
211
 10
15.620032
 20
5.235583
 30
0.0
  0
VERTEX
  8
HOLE
 62
     5
  5
212
 10
15.628109
 20
5.249428
 30
0.0
  0
VERTEX
  8
HOLE
 62
     5
  5
213
 10
15.634645
 20
5.26379
 30
0.0
  0
VERTEX
  8
HOLE
 62
     5
  5
214
 10
15.639623
 20
5.278426
 30
0.0
  0
VERTEX
  8
HOLE
 62
     5
  5
215
 10
15.643073
 20
5.293103
 30
0.0
  0
VERTEX
  8
HOLE
 62
     5
  5
216
 10
15.645065
 20
5.307608
 30
0.0
  0
VERTEX
  8
HOLE
 62
     5
  5
217
 10
15.645702
 20
5.321758
 30
0.0
  0
SEQEND
  8
HOLE
 62
     5
  5
218
  0
POLYLINE
  8
HOLE
 62
     5
  5
219
 66
     1
 10
0.0
 20
0.0
 30
0.0
 70
     1
210
0.0
220
0.0
230
1.0
  0
VERTEX
  8
HOLE
 62
     5
  5
21A
 10
6.395702
 20
15.508766
 30
0.0
  0
VERTEX
  8
HOLE
 62
     5
  5
21B
 10
6.395065
 20
15.522916
 30
0.0
  0
VERTEX
  8
HOLE
 62
     5
  5
21C
 10
6.393073
 20
15.537422
 30
0.0
  0
VERTEX
  8
HOLE
 62
     5
  5
21D
 10
6.389623
 20
15.552098
 30
0.0
  0
VERTEX
  8
HOLE
 62
     5
  5
21E
 10
6.384645
 20
15.566734
 30
0.0
  0
VERTEX
  8
HOLE
 62
     5
  5
21F
 10
6.378109
 20
15.581096
 30
0.0
  0
VERTEX
  8
HOLE
 62
     5
  5
220
 10
6.370032
 20
15.594941
 30
0.0
  0
VERTEX
  8
HOLE
 62
     5
  5
221
 10
6.360482
 20
15.608026
 30
0.0
  0
VERTEX
  8
HOLE
 62
     5
  5
222
 10
6.349577
 20
15.620121
 30
0.0
  0
VERTEX
  8
HOLE
 62
     5
  5
223
 10
6.337481
 20
15.631026
 30
0.0
  0
VERTEX
  8
HOLE
 62
     5
  5
224
 10
6.324397
 20
15.640576
 30
0.0
  0
VERTEX
  8
HOLE
 62
     5
  5
225
 10
6.310552
 20
15.648653
 30
0.0
  0
VERTEX
  8
HOLE
 62
     5
  5
226
 10
6.29619
 20
15.655189
 30
0.0
  0
VERTEX
  8
HOLE
 62
     5
  5
227
 10
6.281554
 20
15.660167
 30
0.0
  0
VERTEX
  8
HOLE
 62
     5
  5
228
 10
6.266877
 20
15.663617
 30
0.0
  0
VERTEX
  8
HOLE
 62
     5
  5
229
 10
6.252372
 20
15.665609
 30
0.0
  0
VERTEX
  8
HOLE
 62
     5
  5
22A
 10
6.238222
 20
15.666246
 30
0.0
  0
VERTEX
  8
HOLE
 62
     5
  5
22B
 10
6.224072
 20
15.665609
 30
0.0
  0
VERTEX
  8
HOLE
 62
     5
  5
22C
 10
6.209566
 20
15.663617
 30
0.0
  0
VERTEX
  8
HOLE
 62
     5
  5
22D
 10
6.19489
 20
15.660167
 30
0.0
  0
VERTEX
  8
HOLE
 62
     5
  5
22E
 10
6.180254
 20
15.655189
 30
0.0
  0
VERTEX
  8
HOLE
 62
     5
  5
22F
 10
6.165892
 20
15.648653
 30
0.0
  0
VERTEX
  8
HOLE
 62
     5
  5
230
 10
6.152047
 20
15.640576
 30
0.0
  0
VERTEX
  8
HOLE
 62
     5
  5
231
 10
6.138962
 20
15.631026
 30
0.0
  0
VERTEX
  8
HOLE
 62
     5
  5
232
 10
6.126866
 20
15.620121
 30
0.0
  0
VERTEX
  8
HOLE
 62
     5
  5
233
 10
6.115961
 20
15.608026
 30
0.0
  0
VERTEX
  8
HOLE
 62
     5
  5
234
 10
6.106412
 20
15.594941
 30
0.0
  0
VERTEX
  8
HOLE
 62
     5
  5
235
 10
6.098335
 20
15.581096
 30
0.0
  0
VERTEX
  8
HOLE
 62
     5
  5
236
 10
6.091798
 20
15.566734
 30
0.0
  0
VERTEX
  8
HOLE
 62
     5
  5
237
 10
6.08682
 20
15.552098
 30
0.0
  0
VERTEX
  8
HOLE
 62
     5
  5
238
 10
6.083371
 20
15.537422
 30
0.0
  0
VERTEX
  8
HOLE
 62
     5
  5
239
 10
6.081379
 20
15.522916
 30
0.0
  0
VERTEX
  8
HOLE
 62
     5
  5
23A
 10
6.080742
 20
15.508766
 30
0.0
  0
VERTEX
  8
HOLE
 62
     5
  5
23B
 10
6.081379
 20
15.494616
 30
0.0
  0
VERTEX
  8
HOLE
 62
     5
  5
23C
 10
6.083371
 20
15.48011
 30
0.0
  0
VERTEX
  8
HOLE
 62
     5
  5
23D
 10
6.08682
 20
15.465434
 30
0.0
  0
VERTEX
  8
HOLE
 62
     5
  5
23E
 10
6.091798
 20
15.450798
 30
0.0
  0
VERTEX
  8
HOLE
 62
     5
  5
23F
 10
6.098335
 20
15.436436
 30
0.0
  0
VERTEX
  8
HOLE
 62
     5
  5
240
 10
6.106412
 20
15.422591
 30
0.0
  0
VERTEX
  8
HOLE
 62
     5
  5
241
 10
6.115961
 20
15.409506
 30
0.0
  0
VERTEX
  8
HOLE
 62
     5
  5
242
 10
6.126866
 20
15.397411
 30
0.0
  0
VERTEX
  8
HOLE
 62
     5
  5
243
 10
6.138962
 20
15.386506
 30
0.0
  0
VERTEX
  8
HOLE
 62
     5
  5
244
 10
6.152047
 20
15.376956
 30
0.0
  0
VERTEX
  8
HOLE
 62
     5
  5
245
 10
6.165892
 20
15.368879
 30
0.0
  0
VERTEX
  8
HOLE
 62
     5
  5
246
 10
6.180254
 20
15.362343
 30
0.0
  0
VERTEX
  8
HOLE
 62
     5
  5
247
 10
6.19489
 20
15.357365
 30
0.0
  0
VERTEX
  8
HOLE
 62
     5
  5
248
 10
6.209566
 20
15.353915
 30
0.0
  0
VERTEX
  8
HOLE
 62
     5
  5
249
 10
6.224072
 20
15.351923
 30
0.0
  0
VERTEX
  8
HOLE
 62
     5
  5
24A
 10
6.238222
 20
15.351286
 30
0.0
  0
VERTEX
  8
HOLE
 62
     5
  5
24B
 10
6.252372
 20
15.351923
 30
0.0
  0
VERTEX
  8
HOLE
 62
     5
  5
24C
 10
6.266877
 20
15.353915
 30
0.0
  0
VERTEX
  8
HOLE
 62
     5
  5
24D
 10
6.281554
 20
15.357365
 30
0.0
  0
VERTEX
  8
HOLE
 62
     5
  5
24E
 10
6.29619
 20
15.362343
 30
0.0
  0
VERTEX
  8
HOLE
 62
     5
  5
24F
 10
6.310552
 20
15.368879
 30
0.0
  0
VERTEX
  8
HOLE
 62
     5
  5
250
 10
6.324397
 20
15.376956
 30
0.0
  0
VERTEX
  8
HOLE
 62
     5
  5
251
 10
6.337481
 20
15.386506
 30
0.0
  0
VERTEX
  8
HOLE
 62
     5
  5
252
 10
6.349577
 20
15.397411
 30
0.0
  0
VERTEX
  8
HOLE
 62
     5
  5
253
 10
6.360482
 20
15.409506
 30
0.0
  0
VERTEX
  8
HOLE
 62
     5
  5
254
 10
6.370032
 20
15.422591
 30
0.0
  0
VERTEX
  8
HOLE
 62
     5
  5
255
 10
6.378109
 20
15.436436
 30
0.0
  0
VERTEX
  8
HOLE
 62
     5
  5
256
 10
6.384645
 20
15.450798
 30
0.0
  0
VERTEX
  8
HOLE
 62
     5
  5
257
 10
6.389623
 20
15.465434
 30
0.0
  0
VERTEX
  8
HOLE
 62
     5
  5
258
 10
6.393073
 20
15.48011
 30
0.0
  0
VERTEX
  8
HOLE
 62
     5
  5
259
 10
6.395065
 20
15.494616
 30
0.0
  0
VERTEX
  8
HOLE
 62
     5
  5
25A
 10
6.395702
 20
15.508766
 30
0.0
  0
SEQEND
  8
HOLE
 62
     5
  5
25B
  0
POLYLINE
  8
HOLE
 62
     5
  5
25C
 66
     1
 10
0.0
 20
0.0
 30
0.0
 70
     1
210
0.0
220
0.0
230
1.0
  0
VERTEX
  8
HOLE
 62
     5
  5
25D
 10
18.895702
 20
15.508766
 30
0.0
  0
VERTEX
  8
HOLE
 62
     5
  5
25E
 10
18.895065
 20
15.522916
 30
0.0
  0
VERTEX
  8
HOLE
 62
     5
  5
25F
 10
18.893073
 20
15.537422
 30
0.0
  0
VERTEX
  8
HOLE
 62
     5
  5
260
 10
18.889623
 20
15.552098
 30
0.0
  0
VERTEX
  8
HOLE
 62
     5
  5
261
 10
18.884645
 20
15.566734
 30
0.0
  0
VERTEX
  8
HOLE
 62
     5
  5
262
 10
18.878109
 20
15.581096
 30
0.0
  0
VERTEX
  8
HOLE
 62
     5
  5
263
 10
18.870032
 20
15.594941
 30
0.0
  0
VERTEX
  8
HOLE
 62
     5
  5
264
 10
18.860482
 20
15.608026
 30
0.0
  0
VERTEX
  8
HOLE
 62
     5
  5
265
 10
18.849577
 20
15.620121
 30
0.0
  0
VERTEX
  8
HOLE
 62
     5
  5
266
 10
18.837481
 20
15.631026
 30
0.0
  0
VERTEX
  8
HOLE
 62
     5
  5
267
 10
18.824397
 20
15.640576
 30
0.0
  0
VERTEX
  8
HOLE
 62
     5
  5
268
 10
18.810552
 20
15.648653
 30
0.0
  0
VERTEX
  8
HOLE
 62
     5
  5
269
 10
18.79619
 20
15.655189
 30
0.0
  0
VERTEX
  8
HOLE
 62
     5
  5
26A
 10
18.781554
 20
15.660167
 30
0.0
  0
VERTEX
  8
HOLE
 62
     5
  5
26B
 10
18.766877
 20
15.663617
 30
0.0
  0
VERTEX
  8
HOLE
 62
     5
  5
26C
 10
18.752372
 20
15.665609
 30
0.0
  0
VERTEX
  8
HOLE
 62
     5
  5
26D
 10
18.738222
 20
15.666246
 30
0.0
  0
VERTEX
  8
HOLE
 62
     5
  5
26E
 10
18.724072
 20
15.665609
 30
0.0
  0
VERTEX
  8
HOLE
 62
     5
  5
26F
 10
18.709566
 20
15.663617
 30
0.0
  0
VERTEX
  8
HOLE
 62
     5
  5
270
 10
18.69489
 20
15.660167
 30
0.0
  0
VERTEX
  8
HOLE
 62
     5
  5
271
 10
18.680254
 20
15.655189
 30
0.0
  0
VERTEX
  8
HOLE
 62
     5
  5
272
 10
18.665892
 20
15.648653
 30
0.0
  0
VERTEX
  8
HOLE
 62
     5
  5
273
 10
18.652047
 20
15.640576
 30
0.0
  0
VERTEX
  8
HOLE
 62
     5
  5
274
 10
18.638962
 20
15.631026
 30
0.0
  0
VERTEX
  8
HOLE
 62
     5
  5
275
 10
18.626866
 20
15.620121
 30
0.0
  0
VERTEX
  8
HOLE
 62
     5
  5
276
 10
18.615961
 20
15.608026
 30
0.0
  0
VERTEX
  8
HOLE
 62
     5
  5
277
 10
18.606412
 20
15.594941
 30
0.0
  0
VERTEX
  8
HOLE
 62
     5
  5
278
 10
18.598335
 20
15.581096
 30
0.0
  0
VERTEX
  8
HOLE
 62
     5
  5
279
 10
18.591798
 20
15.566734
 30
0.0
  0
VERTEX
  8
HOLE
 62
     5
  5
27A
 10
18.58682
 20
15.552098
 30
0.0
  0
VERTEX
  8
HOLE
 62
     5
  5
27B
 10
18.583371
 20
15.537422
 30
0.0
  0
VERTEX
  8
HOLE
 62
     5
  5
27C
 10
18.581379
 20
15.522916
 30
0.0
  0
VERTEX
  8
HOLE
 62
     5
  5
27D
 10
18.580742
 20
15.508766
 30
0.0
  0
VERTEX
  8
HOLE
 62
     5
  5
27E
 10
18.581379
 20
15.494616
 30
0.0
  0
VERTEX
  8
HOLE
 62
     5
  5
27F
 10
18.583371
 20
15.48011
 30
0.0
  0
VERTEX
  8
HOLE
 62
     5
  5
280
 10
18.58682
 20
15.465434
 30
0.0
  0
VERTEX
  8
HOLE
 62
     5
  5
281
 10
18.591798
 20
15.450798
 30
0.0
  0
VERTEX
  8
HOLE
 62
     5
  5
282
 10
18.598335
 20
15.436436
 30
0.0
  0
VERTEX
  8
HOLE
 62
     5
  5
283
 10
18.606412
 20
15.422591
 30
0.0
  0
VERTEX
  8
HOLE
 62
     5
  5
284
 10
18.615961
 20
15.409506
 30
0.0
  0
VERTEX
  8
HOLE
 62
     5
  5
285
 10
18.626866
 20
15.397411
 30
0.0
  0
VERTEX
  8
HOLE
 62
     5
  5
286
 10
18.638962
 20
15.386506
 30
0.0
  0
VERTEX
  8
HOLE
 62
     5
  5
287
 10
18.652047
 20
15.376956
 30
0.0
  0
VERTEX
  8
HOLE
 62
     5
  5
288
 10
18.665892
 20
15.368879
 30
0.0
  0
VERTEX
  8
HOLE
 62
     5
  5
289
 10
18.680254
 20
15.362343
 30
0.0
  0
VERTEX
  8
HOLE
 62
     5
  5
28A
 10
18.69489
 20
15.357365
 30
0.0
  0
VERTEX
  8
HOLE
 62
     5
  5
28B
 10
18.709566
 20
15.353915
 30
0.0
  0
VERTEX
  8
HOLE
 62
     5
  5
28C
 10
18.724072
 20
15.351923
 30
0.0
  0
VERTEX
  8
HOLE
 62
     5
  5
28D
 10
18.738222
 20
15.351286
 30
0.0
  0
VERTEX
  8
HOLE
 62
     5
  5
28E
 10
18.752372
 20
15.351923
 30
0.0
  0
VERTEX
  8
HOLE
 62
     5
  5
28F
 10
18.766877
 20
15.353915
 30
0.0
  0
VERTEX
  8
HOLE
 62
     5
  5
290
 10
18.781554
 20
15.357365
 30
0.0
  0
VERTEX
  8
HOLE
 62
     5
  5
291
 10
18.79619
 20
15.362343
 30
0.0
  0
VERTEX
  8
HOLE
 62
     5
  5
292
 10
18.810552
 20
15.368879
 30
0.0
  0
VERTEX
  8
HOLE
 62
     5
  5
293
 10
18.824397
 20
15.376956
 30
0.0
  0
VERTEX
  8
HOLE
 62
     5
  5
294
 10
18.837481
 20
15.386506
 30
0.0
  0
VERTEX
  8
HOLE
 62
     5
  5
295
 10
18.849577
 20
15.397411
 30
0.0
  0
VERTEX
  8
HOLE
 62
     5
  5
296
 10
18.860482
 20
15.409506
 30
0.0
  0
VERTEX
  8
HOLE
 62
     5
  5
297
 10
18.870032
 20
15.422591
 30
0.0
  0
VERTEX
  8
HOLE
 62
     5
  5
298
 10
18.878109
 20
15.436436
 30
0.0
  0
VERTEX
  8
HOLE
 62
     5
  5
299
 10
18.884645
 20
15.450798
 30
0.0
  0
VERTEX
  8
HOLE
 62
     5
  5
29A
 10
18.889623
 20
15.465434
 30
0.0
  0
VERTEX
  8
HOLE
 62
     5
  5
29B
 10
18.893073
 20
15.48011
 30
0.0
  0
VERTEX
  8
HOLE
 62
     5
  5
29C
 10
18.895065
 20
15.494616
 30
0.0
  0
VERTEX
  8
HOLE
 62
     5
  5
29D
 10
18.895702
 20
15.508766
 30
0.0
  0
SEQEND
  8
HOLE
 62
     5
  5
29E
  0
POLYLINE
  8
PLINTH
  5
29F
 66
     1
 10
0.0
 20
0.0
 30
0.0
210
0.0
220
0.0
230
1.0
  0
VERTEX
  8
PLINTH
  5
2A0
 10
5.747332
 20
15.518705
 30
0.0
  0
VERTEX
  8
PLINTH
  5
2A1
 10
6.314993
 20
6.42412
 30
0.0
  0
SEQEND
  8
PLINTH
  5
2A2
  0
POLYLINE
  8
PLINTH
  5
2A3
 66
     1
 10
0.0
 20
0.0
 30
0.0
210
0.0
220
0.0
230
1.0
  0
VERTEX
  8
PLINTH
  5
2A4
 10
19.229112
 20
15.518705
 30
0.0
  0
VERTEX
  8
PLINTH
  5
2A5
 10
18.66145
 20
6.42412
 30
0.0
  0
SEQEND
  8
PLINTH
  5
2A6
  0
POINT
  8
DIMS
  5
2A7
 10
12.488222
 20
13.008766
 30
0.0
  0
POINT
  8
DIMS
  5
2A8
 10
15.488222
 20
5.321758
 30
0.0
  0
POINT
  8
DIMS
  5
2A9
 10
9.488222
 20
5.321758
 30
0.0
  0
POINT
  8
DIMS
  5
2AA
 10
6.238222
 20
15.508766
 30
0.0
  0
POINT
  8
DIMS
  5
2AB
 10
18.738222
 20
15.508766
 30
0.0
  0
DIMENSION
  8
DIMS
  5
2B9
  2
*D1
 10
4.851037
 20
5.321758
 30
0.0
 11
4.727147
 21
9.148438
 31
0.0
 13
12.488222
 23
13.008766
 33
0.0
 14
9.488222
 24
5.321758
 34
0.0
 50
90.0
210
0.0
220
0.0
230
1.0
  0
DIMENSION
  8
DIMS
  5
2C7
  2
*D2
 10
4.851037
 20
15.508766
 30
0.0
 11
4.727147
 21
14.241942
 31
0.0
 13
12.488222
 23
13.008766
 33
0.0
 14
6.238222
 24
15.508766
 34
0.0
 50
90.0
210
0.0
220
0.0
230
1.0
  0
POINT
  8
DIMS
  5
2C8
 10
7.178126
 20
14.214393
 30
0.0
  0
POINT
  8
DIMS
  5
2C9
 10
8.059088
 20
6.620971
 30
0.0
  0
POINT
  8
DIMS
  5
2CA
 10
10.716568
 20
6.22727
 30
0.0
  0
POINT
  8
DIMS
  5
2CB
 10
14.259875
 20
6.22727
 30
0.0
  0
POINT
  8
DIMS
  5
2CC
 10
16.917356
 20
6.620971
 30
0.0
  0
POINT
  8
DIMS
  5
2CD
 10
17.798318
 20
14.214393
 30
0.0
  0
DIMENSION
  8
DIMS
  5
2DB
  2
*D3
 10
14.27966
 20
14.214393
 30
0.0
 11
14.15577
 21
13.594756
 31
0.0
 13
12.488222
 23
13.008766
 33
0.0
 14
17.798318
 24
14.214393
 34
0.0
 50
90.0
210
0.0
220
0.0
230
1.0
  0
DIMENSION
  8
DIMS
  5
2E9
  2
*D4
 10
16.385386
 20
6.620971
 30
0.0
 11
16.261496
 21
9.800295
 31
0.0
 13
12.488222
 23
13.008766
 33
0.0
 14
16.917356
 24
6.620971
 34
0.0
 50
90.0
210
0.0
220
0.0
230
1.0
  0
DIMENSION
  8
DIMS
  5
2F7
  2
*D5
 10
10.716568
 20
9.434578
 30
0.0
 11
11.587822
 21
9.558468
 31
0.0
 13
12.488222
 23
13.008766
 33
0.0
 14
10.716568
 24
6.22727
 34
0.0
210
0.0
220
0.0
230
1.0
  0
DIMENSION
  8
DIMS
  5
305
  2
*D6
 10
8.059088
 20
10.597442
 30
0.0
 11
10.259082
 21
10.721332
 31
0.0
 13
12.488222
 23
13.008766
 33
0.0
 14
8.059088
 24
6.620971
 34
0.0
210
0.0
220
0.0
230
1.0
  0
DIMENSION
  8
DIMS
  5
313
  2
*D7
 10
9.488222
 20
3.054543
 30
0.0
 11
10.987448
 21
3.178433
 31
0.0
 13
12.488222
 23
13.008766
 33
0.0
 14
9.488222
 24
5.321758
 34
0.0
210
0.0
220
0.0
230
1.0
  0
DIMENSION
  8
DIMS
  5
321
  2
*D8
 10
7.178126
 20
12.326023
 30
0.0
 11
9.818601
 21
12.449913
 31
0.0
 13
12.488222
 23
13.008766
 33
0.0
 14
7.178126
 24
14.214393
 34
0.0
210
0.0
220
0.0
230
1.0
  0
DIMENSION
  8
DIMS
  5
32F
  2
*D9
 10
6.238222
 20
19.994637
 30
0.0
 11
9.348649
 21
20.118527
 31
0.0
 13
12.488222
 23
13.008766
 33
0.0
 14
6.238222
 24
15.508766
 34
0.0
210
0.0
220
0.0
230
1.0
  0
DIMENSION
  8
DIMS
  5
33C
  2
*D10
 10
8.059088
 20
6.620971
 30
0.0
 11
7.001412
 21
8.319714
 31
0.0
 70
     4
 15
7.805753
 25
7.989959
 35
0.0
210
0.0
220
0.0
230
1.0
  0
DIMENSION
  8
DIMS
  5
349
  2
*D11
 10
10.716568
 20
6.22727
 30
0.0
 11
9.603774
 21
7.391449
 31
0.0
 70
     4
 15
10.25862
 25
7.098497
 35
0.0
210
0.0
220
0.0
230
1.0
  0
DIMENSION
  8
DIMS
  5
356
  2
*D12
 10
7.178126
 20
14.214393
 30
0.0
 11
8.590061
 21
15.136544
 31
0.0
 70
     4
 15
7.874097
 25
14.910365
 35
0.0
210
0.0
220
0.0
230
1.0
  0
DIMENSION
  8
DIMS
  5
363
  2
*D13
 10
14.259875
 20
6.22727
 30
0.0
 11
12.696788
 21
7.010043
 31
0.0
 70
     4
 15
13.475865
 25
6.822316
 35
0.0
210
0.0
220
0.0
230
1.0
  0
DIMENSION
  8
DIMS
  5
370
  2
*D14
 10
16.917356
 20
6.620971
 30
0.0
 11
17.714941
 21
8.345229
 31
0.0
 70
     4
 15
17.010828
 25
8.010061
 35
0.0
210
0.0
220
0.0
230
1.0
  0
DIMENSION
  8
DIMS
  5
37D
  2
*D15
 10
17.798318
 20
14.214393
 30
0.0
 11
16.342359
 21
15.12187
 31
0.0
 70
     4
 15
17.09188
 25
14.899738
 35
0.0
210
0.0
220
0.0
230
1.0
  0
POLYLINE
  8
HIDE
  5
37F
 66
     1
 10
0.0
 20
0.0
 30
0.0
 70
     1
210
0.0
220
0.0
230
1.0
  0
VERTEX
  8
HIDE
  5
380
 10
15.244127
 20
6.22727
 30
0.0
  0
VERTEX
  8
HIDE
  5
381
 10
15.240146
 20
6.315709
 30
0.0
  0
VERTEX
  8
HIDE
  5
382
 10
15.227696
 20
6.406367
 30
0.0
  0
VERTEX
  8
HIDE
  5
383
 10
15.206134
 20
6.498095
 30
0.0
  0
VERTEX
  8
HIDE
  5
384
 10
15.175021
 20
6.589568
 30
0.0
  0
VERTEX
  8
HIDE
  5
385
 10
15.134171
 20
6.679332
 30
0.0
  0
VERTEX
  8
HIDE
  5
386
 10
15.08369
 20
6.765862
 30
0.0
  0
VERTEX
  8
HIDE
  5
387
 10
15.024003
 20
6.847642
 30
0.0
  0
VERTEX
  8
HIDE
  5
388
 10
14.955847
 20
6.923241
 30
0.0
  0
VERTEX
  8
HIDE
  5
389
 10
14.880248
 20
6.991397
 30
0.0
  0
VERTEX
  8
HIDE
  5
38A
 10
14.798468
 20
7.051084
 30
0.0
  0
VERTEX
  8
HIDE
  5
38B
 10
14.711937
 20
7.101565
 30
0.0
  0
VERTEX
  8
HIDE
  5
38C
 10
14.622173
 20
7.142416
 30
0.0
  0
VERTEX
  8
HIDE
  5
38D
 10
14.5307
 20
7.173529
 30
0.0
  0
VERTEX
  8
HIDE
  5
38E
 10
14.438973
 20
7.19509
 30
0.0
  0
VERTEX
  8
HIDE
  5
38F
 10
14.348315
 20
7.207541
 30
0.0
  0
VERTEX
  8
HIDE
  5
390
 10
14.259875
 20
7.211522
 30
0.0
  0
VERTEX
  8
HIDE
  5
391
 10
14.171436
 20
7.207541
 30
0.0
  0
VERTEX
  8
HIDE
  5
392
 10
14.080778
 20
7.19509
 30
0.0
  0
VERTEX
  8
HIDE
  5
393
 10
13.98905
 20
7.173529
 30
0.0
  0
VERTEX
  8
HIDE
  5
394
 10
13.897577
 20
7.142416
 30
0.0
  0
VERTEX
  8
HIDE
  5
395
 10
13.807814
 20
7.101565
 30
0.0
  0
VERTEX
  8
HIDE
  5
396
 10
13.721283
 20
7.051084
 30
0.0
  0
VERTEX
  8
HIDE
  5
397
 10
13.639503
 20
6.991397
 30
0.0
  0
VERTEX
  8
HIDE
  5
398
 10
13.563904
 20
6.923241
 30
0.0
  0
VERTEX
  8
HIDE
  5
399
 10
13.495748
 20
6.847642
 30
0.0
  0
VERTEX
  8
HIDE
  5
39A
 10
13.436061
 20
6.765862
 30
0.0
  0
VERTEX
  8
HIDE
  5
39B
 10
13.38558
 20
6.679332
 30
0.0
  0
VERTEX
  8
HIDE
  5
39C
 10
13.344729
 20
6.589568
 30
0.0
  0
VERTEX
  8
HIDE
  5
39D
 10
13.313617
 20
6.498095
 30
0.0
  0
VERTEX
  8
HIDE
  5
39E
 10
13.292055
 20
6.406367
 30
0.0
  0
VERTEX
  8
HIDE
  5
39F
 10
13.279605
 20
6.315709
 30
0.0
  0
VERTEX
  8
HIDE
  5
3A0
 10
13.275623
 20
6.22727
 30
0.0
  0
VERTEX
  8
HIDE
  5
3A1
 10
13.279605
 20
6.138831
 30
0.0
  0
VERTEX
  8
HIDE
  5
3A2
 10
13.292055
 20
6.048172
 30
0.0
  0
VERTEX
  8
HIDE
  5
3A3
 10
13.313617
 20
5.956445
 30
0.0
  0
VERTEX
  8
HIDE
  5
3A4
 10
13.344729
 20
5.864972
 30
0.0
  0
VERTEX
  8
HIDE
  5
3A5
 10
13.38558
 20
5.775208
 30
0.0
  0
VERTEX
  8
HIDE
  5
3A6
 10
13.436061
 20
5.688678
 30
0.0
  0
VERTEX
  8
HIDE
  5
3A7
 10
13.495748
 20
5.606898
 30
0.0
  0
VERTEX
  8
HIDE
  5
3A8
 10
13.563904
 20
5.531299
 30
0.0
  0
VERTEX
  8
HIDE
  5
3A9
 10
13.639503
 20
5.463143
 30
0.0
  0
VERTEX
  8
HIDE
  5
3AA
 10
13.721283
 20
5.403455
 30
0.0
  0
VERTEX
  8
HIDE
  5
3AB
 10
13.807814
 20
5.352975
 30
0.0
  0
VERTEX
  8
HIDE
  5
3AC
 10
13.897577
 20
5.312124
 30
0.0
  0
VERTEX
  8
HIDE
  5
3AD
 10
13.98905
 20
5.281011
 30
0.0
  0
VERTEX
  8
HIDE
  5
3AE
 10
14.080778
 20
5.25945
 30
0.0
  0
VERTEX
  8
HIDE
  5
3AF
 10
14.171436
 20
5.246999
 30
0.0
  0
VERTEX
  8
HIDE
  5
3B0
 10
14.259875
 20
5.243018
 30
0.0
  0
VERTEX
  8
HIDE
  5
3B1
 10
14.348315
 20
5.246999
 30
0.0
  0
VERTEX
  8
HIDE
  5
3B2
 10
14.438973
 20
5.25945
 30
0.0
  0
VERTEX
  8
HIDE
  5
3B3
 10
14.5307
 20
5.281011
 30
0.0
  0
VERTEX
  8
HIDE
  5
3B4
 10
14.622173
 20
5.312124
 30
0.0
  0
VERTEX
  8
HIDE
  5
3B5
 10
14.711937
 20
5.352975
 30
0.0
  0
VERTEX
  8
HIDE
  5
3B6
 10
14.798468
 20
5.403455
 30
0.0
  0
VERTEX
  8
HIDE
  5
3B7
 10
14.880248
 20
5.463143
 30
0.0
  0
VERTEX
  8
HIDE
  5
3B8
 10
14.955847
 20
5.531299
 30
0.0
  0
VERTEX
  8
HIDE
  5
3B9
 10
15.024003
 20
5.606898
 30
0.0
  0
VERTEX
  8
HIDE
  5
3BA
 10
15.08369
 20
5.688678
 30
0.0
  0
VERTEX
  8
HIDE
  5
3BB
 10
15.134171
 20
5.775208
 30
0.0
  0
VERTEX
  8
HIDE
  5
3BC
 10
15.175021
 20
5.864972
 30
0.0
  0
VERTEX
  8
HIDE
  5
3BD
 10
15.206134
 20
5.956445
 30
0.0
  0
VERTEX
  8
HIDE
  5
3BE
 10
15.227696
 20
6.048172
 30
0.0
  0
VERTEX
  8
HIDE
  5
3BF
 10
15.240146
 20
6.138831
 30
0.0
  0
VERTEX
  8
HIDE
  5
3C0
 10
15.244127
 20
6.22727
 30
0.0
  0
SEQEND
  8
HIDE
  5
3C1
  0
POLYLINE
  8
HIDE
  5
3C2
 66
     1
 10
0.0
 20
0.0
 30
0.0
 70
     1
210
0.0
220
0.0
230
1.0
  0
VERTEX
  8
HIDE
  5
3C3
 10
11.70082
 20
6.22727
 30
0.0
  0
VERTEX
  8
HIDE
  5
3C4
 10
11.696839
 20
6.315709
 30
0.0
  0
VERTEX
  8
HIDE
  5
3C5
 10
11.684389
 20
6.406367
 30
0.0
  0
VERTEX
  8
HIDE
  5
3C6
 10
11.662827
 20
6.498095
 30
0.0
  0
VERTEX
  8
HIDE
  5
3C7
 10
11.631714
 20
6.589568
 30
0.0
  0
VERTEX
  8
HIDE
  5
3C8
 10
11.590864
 20
6.679332
 30
0.0
  0
VERTEX
  8
HIDE
  5
3C9
 10
11.540383
 20
6.765862
 30
0.0
  0
VERTEX
  8
HIDE
  5
3CA
 10
11.480695
 20
6.847642
 30
0.0
  0
VERTEX
  8
HIDE
  5
3CB
 10
11.41254
 20
6.923241
 30
0.0
  0
VERTEX
  8
HIDE
  5
3CC
 10
11.33694
 20
6.991397
 30
0.0
  0
VERTEX
  8
HIDE
  5
3CD
 10
11.255161
 20
7.051084
 30
0.0
  0
VERTEX
  8
HIDE
  5
3CE
 10
11.16863
 20
7.101565
 30
0.0
  0
VERTEX
  8
HIDE
  5
3CF
 10
11.078866
 20
7.142416
 30
0.0
  0
VERTEX
  8
HIDE
  5
3D0
 10
10.987393
 20
7.173529
 30
0.0
  0
VERTEX
  8
HIDE
  5
3D1
 10
10.895666
 20
7.19509
 30
0.0
  0
VERTEX
  8
HIDE
  5
3D2
 10
10.805008
 20
7.207541
 30
0.0
  0
VERTEX
  8
HIDE
  5
3D3
 10
10.716568
 20
7.211522
 30
0.0
  0
VERTEX
  8
HIDE
  5
3D4
 10
10.628129
 20
7.207541
 30
0.0
  0
VERTEX
  8
HIDE
  5
3D5
 10
10.537471
 20
7.19509
 30
0.0
  0
VERTEX
  8
HIDE
  5
3D6
 10
10.445743
 20
7.173529
 30
0.0
  0
VERTEX
  8
HIDE
  5
3D7
 10
10.35427
 20
7.142416
 30
0.0
  0
VERTEX
  8
HIDE
  5
3D8
 10
10.264507
 20
7.101565
 30
0.0
  0
VERTEX
  8
HIDE
  5
3D9
 10
10.177976
 20
7.051084
 30
0.0
  0
VERTEX
  8
HIDE
  5
3DA
 10
10.096196
 20
6.991397
 30
0.0
  0
VERTEX
  8
HIDE
  5
3DB
 10
10.020597
 20
6.923241
 30
0.0
  0
VERTEX
  8
HIDE
  5
3DC
 10
9.952441
 20
6.847642
 30
0.0
  0
VERTEX
  8
HIDE
  5
3DD
 10
9.892754
 20
6.765862
 30
0.0
  0
VERTEX
  8
HIDE
  5
3DE
 10
9.842273
 20
6.679332
 30
0.0
  0
VERTEX
  8
HIDE
  5
3DF
 10
9.801422
 20
6.589568
 30
0.0
  0
VERTEX
  8
HIDE
  5
3E0
 10
9.770309
 20
6.498095
 30
0.0
  0
VERTEX
  8
HIDE
  5
3E1
 10
9.748748
 20
6.406367
 30
0.0
  0
VERTEX
  8
HIDE
  5
3E2
 10
9.736298
 20
6.315709
 30
0.0
  0
VERTEX
  8
HIDE
  5
3E3
 10
9.732316
 20
6.22727
 30
0.0
  0
VERTEX
  8
HIDE
  5
3E4
 10
9.736298
 20
6.138831
 30
0.0
  0
VERTEX
  8
HIDE
  5
3E5
 10
9.748748
 20
6.048172
 30
0.0
  0
VERTEX
  8
HIDE
  5
3E6
 10
9.770309
 20
5.956445
 30
0.0
  0
VERTEX
  8
HIDE
  5
3E7
 10
9.801422
 20
5.864972
 30
0.0
  0
VERTEX
  8
HIDE
  5
3E8
 10
9.842273
 20
5.775208
 30
0.0
  0
VERTEX
  8
HIDE
  5
3E9
 10
9.892754
 20
5.688678
 30
0.0
  0
VERTEX
  8
HIDE
  5
3EA
 10
9.952441
 20
5.606898
 30
0.0
  0
VERTEX
  8
HIDE
  5
3EB
 10
10.020597
 20
5.531299
 30
0.0
  0
VERTEX
  8
HIDE
  5
3EC
 10
10.096196
 20
5.463143
 30
0.0
  0
VERTEX
  8
HIDE
  5
3ED
 10
10.177976
 20
5.403455
 30
0.0
  0
VERTEX
  8
HIDE
  5
3EE
 10
10.264507
 20
5.352975
 30
0.0
  0
VERTEX
  8
HIDE
  5
3EF
 10
10.35427
 20
5.312124
 30
0.0
  0
VERTEX
  8
HIDE
  5
3F0
 10
10.445743
 20
5.281011
 30
0.0
  0
VERTEX
  8
HIDE
  5
3F1
 10
10.537471
 20
5.25945
 30
0.0
  0
VERTEX
  8
HIDE
  5
3F2
 10
10.628129
 20
5.246999
 30
0.0
  0
VERTEX
  8
HIDE
  5
3F3
 10
10.716568
 20
5.243018
 30
0.0
  0
VERTEX
  8
HIDE
  5
3F4
 10
10.805008
 20
5.246999
 30
0.0
  0
VERTEX
  8
HIDE
  5
3F5
 10
10.895666
 20
5.25945
 30
0.0
  0
VERTEX
  8
HIDE
  5
3F6
 10
10.987393
 20
5.281011
 30
0.0
  0
VERTEX
  8
HIDE
  5
3F7
 10
11.078866
 20
5.312124
 30
0.0
  0
VERTEX
  8
HIDE
  5
3F8
 10
11.16863
 20
5.352975
 30
0.0
  0
VERTEX
  8
HIDE
  5
3F9
 10
11.255161
 20
5.403455
 30
0.0
  0
VERTEX
  8
HIDE
  5
3FA
 10
11.33694
 20
5.463143
 30
0.0
  0
VERTEX
  8
HIDE
  5
3FB
 10
11.41254
 20
5.531299
 30
0.0
  0
VERTEX
  8
HIDE
  5
3FC
 10
11.480695
 20
5.606898
 30
0.0
  0
VERTEX
  8
HIDE
  5
3FD
 10
11.540383
 20
5.688678
 30
0.0
  0
VERTEX
  8
HIDE
  5
3FE
 10
11.590864
 20
5.775208
 30
0.0
  0
VERTEX
  8
HIDE
  5
3FF
 10
11.631714
 20
5.864972
 30
0.0
  0
VERTEX
  8
HIDE
  5
400
 10
11.662827
 20
5.956445
 30
0.0
  0
VERTEX
  8
HIDE
  5
401
 10
11.684389
 20
6.048172
 30
0.0
  0
VERTEX
  8
HIDE
  5
402
 10
11.696839
 20
6.138831
 30
0.0
  0
VERTEX
  8
HIDE
  5
403
 10
11.70082
 20
6.22727
 30
0.0
  0
SEQEND
  8
HIDE
  5
404
  0
POLYLINE
  8
HIDE
  5
405
 66
     1
 10
0.0
 20
0.0
 30
0.0
 70
     1
210
0.0
220
0.0
230
1.0
  0
VERTEX
  8
HIDE
  5
406
 10
9.451319
 20
6.620971
 30
0.0
  0
VERTEX
  8
HIDE
  5
407
 10
9.445687
 20
6.746069
 30
0.0
  0
VERTEX
  8
HIDE
  5
408
 10
9.428076
 20
6.874305
 30
0.0
  0
VERTEX
  8
HIDE
  5
409
 10
9.397578
 20
7.004055
 30
0.0
  0
VERTEX
  8
HIDE
  5
40A
 10
9.353568
 20
7.133444
 30
0.0
  0
VERTEX
  8
HIDE
  5
40B
 10
9.295785
 20
7.260415
 30
0.0
  0
VERTEX
  8
HIDE
  5
40C
 10
9.224379
 20
7.382813
 30
0.0
  0
VERTEX
  8
HIDE
  5
40D
 10
9.139951
 20
7.498491
 30
0.0
  0
VERTEX
  8
HIDE
  5
40E
 10
9.043544
 20
7.605427
 30
0.0
  0
VERTEX
  8
HIDE
  5
40F
 10
8.936609
 20
7.701834
 30
0.0
  0
VERTEX
  8
HIDE
  5
410
 10
8.82093
 20
7.786262
 30
0.0
  0
VERTEX
  8
HIDE
  5
411
 10
8.698532
 20
7.857667
 30
0.0
  0
VERTEX
  8
HIDE
  5
412
 10
8.571561
 20
7.915451
 30
0.0
  0
VERTEX
  8
HIDE
  5
413
 10
8.442172
 20
7.95946
 30
0.0
  0
VERTEX
  8
HIDE
  5
414
 10
8.312423
 20
7.989959
 30
0.0
  0
VERTEX
  8
HIDE
  5
415
 10
8.184186
 20
8.00757
 30
0.0
  0
VERTEX
  8
HIDE
  5
416
 10
8.059088
 20
8.013202
 30
0.0
  0
VERTEX
  8
HIDE
  5
417
 10
7.93399
 20
8.00757
 30
0.0
  0
VERTEX
  8
HIDE
  5
418
 10
7.805753
 20
7.989959
 30
0.0
  0
VERTEX
  8
HIDE
  5
419
 10
7.676004
 20
7.95946
 30
0.0
  0
VERTEX
  8
HIDE
  5
41A
 10
7.546615
 20
7.915451
 30
0.0
  0
VERTEX
  8
HIDE
  5
41B
 10
7.419644
 20
7.857667
 30
0.0
  0
VERTEX
  8
HIDE
  5
41C
 10
7.297245
 20
7.786262
 30
0.0
  0
VERTEX
  8
HIDE
  5
41D
 10
7.181567
 20
7.701834
 30
0.0
  0
VERTEX
  8
HIDE
  5
41E
 10
7.074632
 20
7.605427
 30
0.0
  0
VERTEX
  8
HIDE
  5
41F
 10
6.978225
 20
7.498491
 30
0.0
  0
VERTEX
  8
HIDE
  5
420
 10
6.893797
 20
7.382813
 30
0.0
  0
VERTEX
  8
HIDE
  5
421
 10
6.822391
 20
7.260415
 30
0.0
  0
VERTEX
  8
HIDE
  5
422
 10
6.764608
 20
7.133444
 30
0.0
  0
VERTEX
  8
HIDE
  5
423
 10
6.720598
 20
7.004055
 30
0.0
  0
VERTEX
  8
HIDE
  5
424
 10
6.6901
 20
6.874305
 30
0.0
  0
VERTEX
  8
HIDE
  5
425
 10
6.672488
 20
6.746069
 30
0.0
  0
VERTEX
  8
HIDE
  5
426
 10
6.666857
 20
6.620971
 30
0.0
  0
VERTEX
  8
HIDE
  5
427
 10
6.672488
 20
6.495873
 30
0.0
  0
VERTEX
  8
HIDE
  5
428
 10
6.6901
 20
6.367636
 30
0.0
  0
VERTEX
  8
HIDE
  5
429
 10
6.720598
 20
6.237887
 30
0.0
  0
VERTEX
  8
HIDE
  5
42A
 10
6.764608
 20
6.108498
 30
0.0
  0
VERTEX
  8
HIDE
  5
42B
 10
6.822391
 20
5.981527
 30
0.0
  0
VERTEX
  8
HIDE
  5
42C
 10
6.893797
 20
5.859128
 30
0.0
  0
VERTEX
  8
HIDE
  5
42D
 10
6.978225
 20
5.74345
 30
0.0
  0
VERTEX
  8
HIDE
  5
42E
 10
7.074632
 20
5.636515
 30
0.0
  0
VERTEX
  8
HIDE
  5
42F
 10
7.181567
 20
5.540108
 30
0.0
  0
VERTEX
  8
HIDE
  5
430
 10
7.297245
 20
5.455679
 30
0.0
  0
VERTEX
  8
HIDE
  5
431
 10
7.419644
 20
5.384274
 30
0.0
  0
VERTEX
  8
HIDE
  5
432
 10
7.546615
 20
5.32649
 30
0.0
  0
VERTEX
  8
HIDE
  5
433
 10
7.676004
 20
5.282481
 30
0.0
  0
VERTEX
  8
HIDE
  5
434
 10
7.805753
 20
5.251982
 30
0.0
  0
VERTEX
  8
HIDE
  5
435
 10
7.93399
 20
5.234371
 30
0.0
  0
VERTEX
  8
HIDE
  5
436
 10
8.059088
 20
5.22874
 30
0.0
  0
VERTEX
  8
HIDE
  5
437
 10
8.184186
 20
5.234371
 30
0.0
  0
VERTEX
  8
HIDE
  5
438
 10
8.312423
 20
5.251982
 30
0.0
  0
VERTEX
  8
HIDE
  5
439
 10
8.442172
 20
5.282481
 30
0.0
  0
VERTEX
  8
HIDE
  5
43A
 10
8.571561
 20
5.32649
 30
0.0
  0
VERTEX
  8
HIDE
  5
43B
 10
8.698532
 20
5.384274
 30
0.0
  0
VERTEX
  8
HIDE
  5
43C
 10
8.82093
 20
5.455679
 30
0.0
  0
VERTEX
  8
HIDE
  5
43D
 10
8.936609
 20
5.540108
 30
0.0
  0
VERTEX
  8
HIDE
  5
43E
 10
9.043544
 20
5.636515
 30
0.0
  0
VERTEX
  8
HIDE
  5
43F
 10
9.139951
 20
5.74345
 30
0.0
  0
VERTEX
  8
HIDE
  5
440
 10
9.224379
 20
5.859128
 30
0.0
  0
VERTEX
  8
HIDE
  5
441
 10
9.295785
 20
5.981527
 30
0.0
  0
VERTEX
  8
HIDE
  5
442
 10
9.353568
 20
6.108498
 30
0.0
  0
VERTEX
  8
HIDE
  5
443
 10
9.397578
 20
6.237887
 30
0.0
  0
VERTEX
  8
HIDE
  5
444
 10
9.428076
 20
6.367636
 30
0.0
  0
VERTEX
  8
HIDE
  5
445
 10
9.445687
 20
6.495873
 30
0.0
  0
VERTEX
  8
HIDE
  5
446
 10
9.451319
 20
6.620971
 30
0.0
  0
SEQEND
  8
HIDE
  5
447
  0
POLYLINE
  8
HIDE
  5
448
 66
     1
 10
0.0
 20
0.0
 30
0.0
 70
     1
210
0.0
220
0.0
230
1.0
  0
VERTEX
  8
HIDE
  5
449
 10
18.309587
 20
6.620971
 30
0.0
  0
VERTEX
  8
HIDE
  5
44A
 10
18.303955
 20
6.746069
 30
0.0
  0
VERTEX
  8
HIDE
  5
44B
 10
18.286344
 20
6.874305
 30
0.0
  0
VERTEX
  8
HIDE
  5
44C
 10
18.255845
 20
7.004055
 30
0.0
  0
VERTEX
  8
HIDE
  5
44D
 10
18.211836
 20
7.133444
 30
0.0
  0
VERTEX
  8
HIDE
  5
44E
 10
18.154052
 20
7.260415
 30
0.0
  0
VERTEX
  8
HIDE
  5
44F
 10
18.082647
 20
7.382813
 30
0.0
  0
VERTEX
  8
HIDE
  5
450
 10
17.998219
 20
7.498491
 30
0.0
  0
VERTEX
  8
HIDE
  5
451
 10
17.901812
 20
7.605427
 30
0.0
  0
VERTEX
  8
HIDE
  5
452
 10
17.794876
 20
7.701834
 30
0.0
  0
VERTEX
  8
HIDE
  5
453
 10
17.679198
 20
7.786262
 30
0.0
  0
VERTEX
  8
HIDE
  5
454
 10
17.5568
 20
7.857667
 30
0.0
  0
VERTEX
  8
HIDE
  5
455
 10
17.429829
 20
7.915451
 30
0.0
  0
VERTEX
  8
HIDE
  5
456
 10
17.30044
 20
7.95946
 30
0.0
  0
VERTEX
  8
HIDE
  5
457
 10
17.17069
 20
7.989959
 30
0.0
  0
VERTEX
  8
HIDE
  5
458
 10
17.042454
 20
8.00757
 30
0.0
  0
VERTEX
  8
HIDE
  5
459
 10
16.917356
 20
8.013202
 30
0.0
  0
VERTEX
  8
HIDE
  5
45A
 10
16.792258
 20
8.00757
 30
0.0
  0
VERTEX
  8
HIDE
  5
45B
 10
16.664021
 20
7.989959
 30
0.0
  0
VERTEX
  8
HIDE
  5
45C
 10
16.534272
 20
7.95946
 30
0.0
  0
VERTEX
  8
HIDE
  5
45D
 10
16.404883
 20
7.915451
 30
0.0
  0
VERTEX
  8
HIDE
  5
45E
 10
16.277911
 20
7.857667
 30
0.0
  0
VERTEX
  8
HIDE
  5
45F
 10
16.155513
 20
7.786262
 30
0.0
  0
VERTEX
  8
HIDE
  5
460
 10
16.039835
 20
7.701834
 30
0.0
  0
VERTEX
  8
HIDE
  5
461
 10
15.9329
 20
7.605427
 30
0.0
  0
VERTEX
  8
HIDE
  5
462
 10
15.836493
 20
7.498491
 30
0.0
  0
VERTEX
  8
HIDE
  5
463
 10
15.752064
 20
7.382813
 30
0.0
  0
VERTEX
  8
HIDE
  5
464
 10
15.680659
 20
7.260415
 30
0.0
  0
VERTEX
  8
HIDE
  5
465
 10
15.622875
 20
7.133444
 30
0.0
  0
VERTEX
  8
HIDE
  5
466
 10
15.578866
 20
7.004055
 30
0.0
  0
VERTEX
  8
HIDE
  5
467
 10
15.548367
 20
6.874305
 30
0.0
  0
VERTEX
  8
HIDE
  5
468
 10
15.530756
 20
6.746069
 30
0.0
  0
VERTEX
  8
HIDE
  5
469
 10
15.525124
 20
6.620971
 30
0.0
  0
VERTEX
  8
HIDE
  5
46A
 10
15.530756
 20
6.495873
 30
0.0
  0
VERTEX
  8
HIDE
  5
46B
 10
15.548367
 20
6.367636
 30
0.0
  0
VERTEX
  8
HIDE
  5
46C
 10
15.578866
 20
6.237887
 30
0.0
  0
VERTEX
  8
HIDE
  5
46D
 10
15.622875
 20
6.108498
 30
0.0
  0
VERTEX
  8
HIDE
  5
46E
 10
15.680659
 20
5.981527
 30
0.0
  0
VERTEX
  8
HIDE
  5
46F
 10
15.752064
 20
5.859128
 30
0.0
  0
VERTEX
  8
HIDE
  5
470
 10
15.836493
 20
5.74345
 30
0.0
  0
VERTEX
  8
HIDE
  5
471
 10
15.9329
 20
5.636515
 30
0.0
  0
VERTEX
  8
HIDE
  5
472
 10
16.039835
 20
5.540108
 30
0.0
  0
VERTEX
  8
HIDE
  5
473
 10
16.155513
 20
5.455679
 30
0.0
  0
VERTEX
  8
HIDE
  5
474
 10
16.277911
 20
5.384274
 30
0.0
  0
VERTEX
  8
HIDE
  5
475
 10
16.404883
 20
5.32649
 30
0.0
  0
VERTEX
  8
HIDE
  5
476
 10
16.534272
 20
5.282481
 30
0.0
  0
VERTEX
  8
HIDE
  5
477
 10
16.664021
 20
5.251982
 30
0.0
  0
VERTEX
  8
HIDE
  5
478
 10
16.792258
 20
5.234371
 30
0.0
  0
VERTEX
  8
HIDE
  5
479
 10
16.917356
 20
5.22874
 30
0.0
  0
VERTEX
  8
HIDE
  5
47A
 10
17.042454
 20
5.234371
 30
0.0
  0
VERTEX
  8
HIDE
  5
47B
 10
17.17069
 20
5.251982
 30
0.0
  0
VERTEX
  8
HIDE
  5
47C
 10
17.30044
 20
5.282481
 30
0.0
  0
VERTEX
  8
HIDE
  5
47D
 10
17.429829
 20
5.32649
 30
0.0
  0
VERTEX
  8
HIDE
  5
47E
 10
17.5568
 20
5.384274
 30
0.0
  0
VERTEX
  8
HIDE
  5
47F
 10
17.679198
 20
5.455679
 30
0.0
  0
VERTEX
  8
HIDE
  5
480
 10
17.794876
 20
5.540108
 30
0.0
  0
VERTEX
  8
HIDE
  5
481
 10
17.901812
 20
5.636515
 30
0.0
  0
VERTEX
  8
HIDE
  5
482
 10
17.998219
 20
5.74345
 30
0.0
  0
VERTEX
  8
HIDE
  5
483
 10
18.082647
 20
5.859128
 30
0.0
  0
VERTEX
  8
HIDE
  5
484
 10
18.154052
 20
5.981527
 30
0.0
  0
VERTEX
  8
HIDE
  5
485
 10
18.211836
 20
6.108498
 30
0.0
  0
VERTEX
  8
HIDE
  5
486
 10
18.255845
 20
6.237887
 30
0.0
  0
VERTEX
  8
HIDE
  5
487
 10
18.286344
 20
6.367636
 30
0.0
  0
VERTEX
  8
HIDE
  5
488
 10
18.303955
 20
6.495873
 30
0.0
  0
VERTEX
  8
HIDE
  5
489
 10
18.309587
 20
6.620971
 30
0.0
  0
SEQEND
  8
HIDE
  5
48A
  0
POLYLINE
  8
HIDE
  5
48B
 66
     1
 10
0.0
 20
0.0
 30
0.0
 70
     1
210
0.0
220
0.0
230
1.0
  0
VERTEX
  8
HIDE
  5
48C
 10
18.78257
 20
14.214393
 30
0.0
  0
VERTEX
  8
HIDE
  5
48D
 10
18.778588
 20
14.302833
 30
0.0
  0
VERTEX
  8
HIDE
  5
48E
 10
18.766138
 20
14.393491
 30
0.0
  0
VERTEX
  8
HIDE
  5
48F
 10
18.744577
 20
14.485218
 30
0.0
  0
VERTEX
  8
HIDE
  5
490
 10
18.713464
 20
14.576691
 30
0.0
  0
VERTEX
  8
HIDE
  5
491
 10
18.672613
 20
14.666455
 30
0.0
  0
VERTEX
  8
HIDE
  5
492
 10
18.622132
 20
14.752986
 30
0.0
  0
VERTEX
  8
HIDE
  5
493
 10
18.562445
 20
14.834765
 30
0.0
  0
VERTEX
  8
HIDE
  5
494
 10
18.494289
 20
14.910365
 30
0.0
  0
VERTEX
  8
HIDE
  5
495
 10
18.41869
 20
14.97852
 30
0.0
  0
VERTEX
  8
HIDE
  5
496
 10
18.33691
 20
15.038208
 30
0.0
  0
VERTEX
  8
HIDE
  5
497
 10
18.250379
 20
15.088689
 30
0.0
  0
VERTEX
  8
HIDE
  5
498
 10
18.160616
 20
15.129539
 30
0.0
  0
VERTEX
  8
HIDE
  5
499
 10
18.069143
 20
15.160652
 30
0.0
  0
VERTEX
  8
HIDE
  5
49A
 10
17.977415
 20
15.182214
 30
0.0
  0
VERTEX
  8
HIDE
  5
49B
 10
17.886757
 20
15.194664
 30
0.0
  0
VERTEX
  8
HIDE
  5
49C
 10
17.798318
 20
15.198645
 30
0.0
  0
VERTEX
  8
HIDE
  5
49D
 10
17.709878
 20
15.194664
 30
0.0
  0
VERTEX
  8
HIDE
  5
49E
 10
17.61922
 20
15.182214
 30
0.0
  0
VERTEX
  8
HIDE
  5
49F
 10
17.527493
 20
15.160652
 30
0.0
  0
VERTEX
  8
HIDE
  5
4A0
 10
17.43602
 20
15.129539
 30
0.0
  0
VERTEX
  8
HIDE
  5
4A1
 10
17.346256
 20
15.088689
 30
0.0
  0
VERTEX
  8
HIDE
  5
4A2
 10
17.259726
 20
15.038208
 30
0.0
  0
VERTEX
  8
HIDE
  5
4A3
 10
17.177946
 20
14.97852
 30
0.0
  0
VERTEX
  8
HIDE
  5
4A4
 10
17.102347
 20
14.910365
 30
0.0
  0
VERTEX
  8
HIDE
  5
4A5
 10
17.034191
 20
14.834765
 30
0.0
  0
VERTEX
  8
HIDE
  5
4A6
 10
16.974503
 20
14.752986
 30
0.0
  0
VERTEX
  8
HIDE
  5
4A7
 10
16.924023
 20
14.666455
 30
0.0
  0
VERTEX
  8
HIDE
  5
4A8
 10
16.883172
 20
14.576691
 30
0.0
  0
VERTEX
  8
HIDE
  5
4A9
 10
16.852059
 20
14.485218
 30
0.0
  0
VERTEX
  8
HIDE
  5
4AA
 10
16.830498
 20
14.393491
 30
0.0
  0
VERTEX
  8
HIDE
  5
4AB
 10
16.818047
 20
14.302833
 30
0.0
  0
VERTEX
  8
HIDE
  5
4AC
 10
16.814066
 20
14.214393
 30
0.0
  0
VERTEX
  8
HIDE
  5
4AD
 10
16.818047
 20
14.125954
 30
0.0
  0
VERTEX
  8
HIDE
  5
4AE
 10
16.830498
 20
14.035296
 30
0.0
  0
VERTEX
  8
HIDE
  5
4AF
 10
16.852059
 20
13.943568
 30
0.0
  0
VERTEX
  8
HIDE
  5
4B0
 10
16.883172
 20
13.852095
 30
0.0
  0
VERTEX
  8
HIDE
  5
4B1
 10
16.924023
 20
13.762332
 30
0.0
  0
VERTEX
  8
HIDE
  5
4B2
 10
16.974503
 20
13.675801
 30
0.0
  0
VERTEX
  8
HIDE
  5
4B3
 10
17.034191
 20
13.594021
 30
0.0
  0
VERTEX
  8
HIDE
  5
4B4
 10
17.102347
 20
13.518422
 30
0.0
  0
VERTEX
  8
HIDE
  5
4B5
 10
17.177946
 20
13.450266
 30
0.0
  0
VERTEX
  8
HIDE
  5
4B6
 10
17.259726
 20
13.390579
 30
0.0
  0
VERTEX
  8
HIDE
  5
4B7
 10
17.346256
 20
13.340098
 30
0.0
  0
VERTEX
  8
HIDE
  5
4B8
 10
17.43602
 20
13.299247
 30
0.0
  0
VERTEX
  8
HIDE
  5
4B9
 10
17.527493
 20
13.268134
 30
0.0
  0
VERTEX
  8
HIDE
  5
4BA
 10
17.61922
 20
13.246573
 30
0.0
  0
VERTEX
  8
HIDE
  5
4BB
 10
17.709878
 20
13.234123
 30
0.0
  0
VERTEX
  8
HIDE
  5
4BC
 10
17.798318
 20
13.230141
 30
0.0
  0
VERTEX
  8
HIDE
  5
4BD
 10
17.886757
 20
13.234123
 30
0.0
  0
VERTEX
  8
HIDE
  5
4BE
 10
17.977415
 20
13.246573
 30
0.0
  0
VERTEX
  8
HIDE
  5
4BF
 10
18.069143
 20
13.268134
 30
0.0
  0
VERTEX
  8
HIDE
  5
4C0
 10
18.160616
 20
13.299247
 30
0.0
  0
VERTEX
  8
HIDE
  5
4C1
 10
18.250379
 20
13.340098
 30
0.0
  0
VERTEX
  8
HIDE
  5
4C2
 10
18.33691
 20
13.390579
 30
0.0
  0
VERTEX
  8
HIDE
  5
4C3
 10
18.41869
 20
13.450266
 30
0.0
  0
VERTEX
  8
HIDE
  5
4C4
 10
18.494289
 20
13.518422
 30
0.0
  0
VERTEX
  8
HIDE
  5
4C5
 10
18.562445
 20
13.594021
 30
0.0
  0
VERTEX
  8
HIDE
  5
4C6
 10
18.622132
 20
13.675801
 30
0.0
  0
VERTEX
  8
HIDE
  5
4C7
 10
18.672613
 20
13.762332
 30
0.0
  0
VERTEX
  8
HIDE
  5
4C8
 10
18.713464
 20
13.852095
 30
0.0
  0
VERTEX
  8
HIDE
  5
4C9
 10
18.744577
 20
13.943568
 30
0.0
  0
VERTEX
  8
HIDE
  5
4CA
 10
18.766138
 20
14.035296
 30
0.0
  0
VERTEX
  8
HIDE
  5
4CB
 10
18.778588
 20
14.125954
 30
0.0
  0
VERTEX
  8
HIDE
  5
4CC
 10
18.78257
 20
14.214393
 30
0.0
  0
SEQEND
  8
HIDE
  5
4CD
  0
POLYLINE
  8
HIDE
  5
4CE
 66
     1
 10
0.0
 20
0.0
 30
0.0
 70
     1
210
0.0
220
0.0
230
1.0
  0
VERTEX
  8
HIDE
  5
4CF
 10
8.162378
 20
14.214393
 30
0.0
  0
VERTEX
  8
HIDE
  5
4D0
 10
8.158396
 20
14.302833
 30
0.0
  0
VERTEX
  8
HIDE
  5
4D1
 10
8.145946
 20
14.393491
 30
0.0
  0
VERTEX
  8
HIDE
  5
4D2
 10
8.124385
 20
14.485218
 30
0.0
  0
VERTEX
  8
HIDE
  5
4D3
 10
8.093272
 20
14.576691
 30
0.0
  0
VERTEX
  8
HIDE
  5
4D4
 10
8.052421
 20
14.666455
 30
0.0
  0
VERTEX
  8
HIDE
  5
4D5
 10
8.00194
 20
14.752986
 30
0.0
  0
VERTEX
  8
HIDE
  5
4D6
 10
7.942253
 20
14.834765
 30
0.0
  0
VERTEX
  8
HIDE
  5
4D7
 10
7.874097
 20
14.910365
 30
0.0
  0
VERTEX
  8
HIDE
  5
4D8
 10
7.798498
 20
14.97852
 30
0.0
  0
VERTEX
  8
HIDE
  5
4D9
 10
7.716718
 20
15.038208
 30
0.0
  0
VERTEX
  8
HIDE
  5
4DA
 10
7.630187
 20
15.088689
 30
0.0
  0
VERTEX
  8
HIDE
  5
4DB
 10
7.540424
 20
15.129539
 30
0.0
  0
VERTEX
  8
HIDE
  5
4DC
 10
7.448951
 20
15.160652
 30
0.0
  0
VERTEX
  8
HIDE
  5
4DD
 10
7.357223
 20
15.182214
 30
0.0
  0
VERTEX
  8
HIDE
  5
4DE
 10
7.266565
 20
15.194664
 30
0.0
  0
VERTEX
  8
HIDE
  5
4DF
 10
7.178126
 20
15.198645
 30
0.0
  0
VERTEX
  8
HIDE
  5
4E0
 10
7.089686
 20
15.194664
 30
0.0
  0
VERTEX
  8
HIDE
  5
4E1
 10
6.999028
 20
15.182214
 30
0.0
  0
VERTEX
  8
HIDE
  5
4E2
 10
6.907301
 20
15.160652
 30
0.0
  0
VERTEX
  8
HIDE
  5
4E3
 10
6.815828
 20
15.129539
 30
0.0
  0
VERTEX
  8
HIDE
  5
4E4
 10
6.726064
 20
15.088689
 30
0.0
  0
VERTEX
  8
HIDE
  5
4E5
 10
6.639534
 20
15.038208
 30
0.0
  0
VERTEX
  8
HIDE
  5
4E6
 10
6.557754
 20
14.97852
 30
0.0
  0
VERTEX
  8
HIDE
  5
4E7
 10
6.482155
 20
14.910365
 30
0.0
  0
VERTEX
  8
HIDE
  5
4E8
 10
6.413999
 20
14.834765
 30
0.0
  0
VERTEX
  8
HIDE
  5
4E9
 10
6.354311
 20
14.752986
 30
0.0
  0
VERTEX
  8
HIDE
  5
4EA
 10
6.303831
 20
14.666455
 30
0.0
  0
VERTEX
  8
HIDE
  5
4EB
 10
6.26298
 20
14.576691
 30
0.0
  0
VERTEX
  8
HIDE
  5
4EC
 10
6.231867
 20
14.485218
 30
0.0
  0
VERTEX
  8
HIDE
  5
4ED
 10
6.210306
 20
14.393491
 30
0.0
  0
VERTEX
  8
HIDE
  5
4EE
 10
6.197855
 20
14.302833
 30
0.0
  0
VERTEX
  8
HIDE
  5
4EF
 10
6.193874
 20
14.214393
 30
0.0
  0
VERTEX
  8
HIDE
  5
4F0
 10
6.197855
 20
14.125954
 30
0.0
  0
VERTEX
  8
HIDE
  5
4F1
 10
6.210306
 20
14.035296
 30
0.0
  0
VERTEX
  8
HIDE
  5
4F2
 10
6.231867
 20
13.943568
 30
0.0
  0
VERTEX
  8
HIDE
  5
4F3
 10
6.26298
 20
13.852095
 30
0.0
  0
VERTEX
  8
HIDE
  5
4F4
 10
6.303831
 20
13.762332
 30
0.0
  0
VERTEX
  8
HIDE
  5
4F5
 10
6.354311
 20
13.675801
 30
0.0
  0
VERTEX
  8
HIDE
  5
4F6
 10
6.413999
 20
13.594021
 30
0.0
  0
VERTEX
  8
HIDE
  5
4F7
 10
6.482155
 20
13.518422
 30
0.0
  0
VERTEX
  8
HIDE
  5
4F8
 10
6.557754
 20
13.450266
 30
0.0
  0
VERTEX
  8
HIDE
  5
4F9
 10
6.639534
 20
13.390579
 30
0.0
  0
VERTEX
  8
HIDE
  5
4FA
 10
6.726064
 20
13.340098
 30
0.0
  0
VERTEX
  8
HIDE
  5
4FB
 10
6.815828
 20
13.299247
 30
0.0
  0
VERTEX
  8
HIDE
  5
4FC
 10
6.907301
 20
13.268134
 30
0.0
  0
VERTEX
  8
HIDE
  5
4FD
 10
6.999028
 20
13.246573
 30
0.0
  0
VERTEX
  8
HIDE
  5
4FE
 10
7.089686
 20
13.234123
 30
0.0
  0
VERTEX
  8
HIDE
  5
4FF
 10
7.178126
 20
13.230141
 30
0.0
  0
VERTEX
  8
HIDE
  5
500
 10
7.266565
 20
13.234123
 30
0.0
  0
VERTEX
  8
HIDE
  5
501
 10
7.357223
 20
13.246573
 30
0.0
  0
VERTEX
  8
HIDE
  5
502
 10
7.448951
 20
13.268134
 30
0.0
  0
VERTEX
  8
HIDE
  5
503
 10
7.540424
 20
13.299247
 30
0.0
  0
VERTEX
  8
HIDE
  5
504
 10
7.630187
 20
13.340098
 30
0.0
  0
VERTEX
  8
HIDE
  5
505
 10
7.716718
 20
13.390579
 30
0.0
  0
VERTEX
  8
HIDE
  5
506
 10
7.798498
 20
13.450266
 30
0.0
  0
VERTEX
  8
HIDE
  5
507
 10
7.874097
 20
13.518422
 30
0.0
  0
VERTEX
  8
HIDE
  5
508
 10
7.942253
 20
13.594021
 30
0.0
  0
VERTEX
  8
HIDE
  5
509
 10
8.00194
 20
13.675801
 30
0.0
  0
VERTEX
  8
HIDE
  5
50A
 10
8.052421
 20
13.762332
 30
0.0
  0
VERTEX
  8
HIDE
  5
50B
 10
8.093272
 20
13.852095
 30
0.0
  0
VERTEX
  8
HIDE
  5
50C
 10
8.124385
 20
13.943568
 30
0.0
  0
VERTEX
  8
HIDE
  5
50D
 10
8.145946
 20
14.035296
 30
0.0
  0
VERTEX
  8
HIDE
  5
50E
 10
8.158396
 20
14.125954
 30
0.0
  0
VERTEX
  8
HIDE
  5
50F
 10
8.162378
 20
14.214393
 30
0.0
  0
SEQEND
  8
HIDE
  5
510
  0
POLYLINE
  8
DIMS
  5
511
 66
     1
 10
0.0
 20
0.0
 30
0.0
210
0.0
220
0.0
230
1.0
  0
VERTEX
  8
DIMS
  5
512
 10
18.4882
 20
9.530792
 30
0.0
  0
VERTEX
  8
DIMS
  5
513
 10
21.463289
 20
8.483561
 30
0.0
  0
VERTEX
  8
DIMS
  5
514
 10
21.963104
 20
8.483561
 30
0.0
  0
SEQEND
  8
DIMS
  5
515
  0
SOLID
  8
DIMS
  5
517
 10
18.680627
 20
9.512752
 30
0.0
 11
18.649499
 21
9.424321
 31
0.0
 12
18.4882
 22
9.530792
 32
0.0
 13
18.4882
 23
9.530792
 33
0.0
210
0.0
220
0.0
230
1.0
  0
TEXT
  8
DIMS
  5
519
 10
22.105908
 20
8.393092
 30
0.0
 40
0.1875
  1
CUT LINE
210
0.0
220
0.0
230
1.0
  0
DIMENSION
  8
DIMS
  5
527
  2
*D16
 10
14.703887
 20
6.22727
 30
0.0
 11
14.579997
 21
9.603445
 31
0.0
 13
12.488222
 23
13.008766
 33
0.0
 14
14.259875
 24
6.22727
 34
0.0
 50
90.0
210
0.0
220
0.0
230
1.0
  0
POLYLINE
  8
DIMS
  5
528
 66
     1
 10
0.0
 20
0.0
 30
0.0
210
0.0
220
0.0
230
1.0
  0
VERTEX
  8
DIMS
  5
529
 10
15.142287
 20
18.240167
 30
0.0
  0
VERTEX
  8
DIMS
  5
52A
 10
12.488222
 20
13.008766
 30
0.0
  0
SEQEND
  8
DIMS
  5
52B
  0
SOLID
  8
DIMS
  5
52D
 10
15.099258
 20
18.051747
 30
0.0
 11
15.015652
 21
18.094163
 31
0.0
 12
15.142287
 22
18.240167
 32
0.0
 13
15.142287
 23
18.240167
 33
0.0
210
0.0
220
0.0
230
1.0
  0
TEXT
  8
DIMS
  5
52F
 10
13.451177
 20
15.200355
 30
0.0
 40
0.1875
  1
5-3/4 R
 50
61.699244
210
0.0
220
0.0
230
1.0
  0
DIMENSION
  8
DIMS
  5
53D
  2
*D17
 10
19.229112
 20
19.994637
 30
0.0
 11
15.831532
 21
20.118527
 31
0.0
 13
12.488222
 23
13.008766
 33
0.0
 14
19.229112
 24
15.518705
 34
0.0
210
0.0
220
0.0
230
1.0
  0
DIMENSION
  8
DIMS
  5
54B
  2
*D18
 10
21.06827
 20
19.189868
 30
0.0
 11
20.94438
 21
11.979193
 31
0.0
 13
17.086647
 23
4.849317
 33
0.0
 14
12.488222
 24
19.189868
 34
0.0
 50
90.0
210
0.0
220
0.0
230
1.0
  0
DIMENSION
  8
DIMS
  5
559
  2
*D19
 10
18.66145
 20
3.085972
 30
0.0
 11
15.547701
 21
3.209862
 31
0.0
 13
12.488222
 23
13.008766
 33
0.0
 14
18.66145
 24
6.42412
 34
0.0
210
0.0
220
0.0
230
1.0
  0
DIMENSION
  8
DIMS
  5
567
  2
*D20
 10
20.06255
 20
4.849317
 30
0.0
 11
19.93866
 21
10.400792
 31
0.0
 13
18.757589
 23
16.020577
 33
0.0
 14
17.086647
 24
4.849317
 34
0.0
 50
90.0
210
0.0
220
0.0
230
1.0
  0
ENDSEC
  0
EOF
